<?xml version="1.0" standalone="no"?>
<!DOCTYPE svg PUBLIC "-//W3C//DTD SVG 1.1//EN" "http://www.w3.org/Graphics/SVG/1.1/DTD/svg11.dtd" >
<!--
2013-9-30: Created.
-->
<svg>
<metadata>
Created by iconfont
</metadata>
<defs>

<font id="iconfont" horiz-adv-x="1024" >
  <font-face
    font-family="iconfont"
    font-weight="500"
    font-stretch="normal"
    units-per-em="1024"
    ascent="896"
    descent="-128"
  />
    <missing-glyph />
    
    <glyph glyph-name="money" unicode="&#60528;" d="M466.34375-34.40625V140.15625H246.5v72.65625h219.84375v75.46875H246.5v78.28125H425.75L211.53125 744h106.59375L471.6875 469.6875c17.0625-31.3125 30.375-58.5 40.03125-81.46875 8.4375 18.5625 23.0625 47.34375 43.875 86.34375L701.28125 744h113.25L599.65625 366.5625h180.84375v-78.28125H561.59375v-75.46875h218.90625v-72.65625H561.59375v-174.5625H466.34375z"  horiz-adv-x="1024" />

    
    <glyph glyph-name="upload2-fill" unicode="&#59272;" d="M529.664 682.666667H896a42.666667 42.666667 0 0 0 42.666667-42.666667v-597.333333a42.666667 42.666667 0 0 0-42.666667-42.666667H128a42.666667 42.666667 0 0 0-42.666667 42.666667V725.333333a42.666667 42.666667 0 0 0 42.666667 42.666667h316.330667l85.333333-85.333333zM554.666667 341.33333300000004h128l-170.666667 170.666667-170.666667-170.666667h128v-170.666666h85.333334v170.666666z"  horiz-adv-x="1024" />

    
    <glyph glyph-name="upload2-line" unicode="&#59274;" d="M529.664 682.666667H896a42.666667 42.666667 0 0 0 42.666667-42.666667v-597.333333a42.666667 42.666667 0 0 0-42.666667-42.666667H128a42.666667 42.666667 0 0 0-42.666667 42.666667V725.333333a42.666667 42.666667 0 0 0 42.666667 42.666667h316.330667l85.333333-85.333333zM170.666667 682.666667v-597.333334h682.666666V597.333333h-358.997333l-85.333333 85.333334H170.666667z m384-341.333334v-170.666666h-85.333334v170.666666H341.333333l170.666667 170.666667 170.666667-170.666667h-128z"  horiz-adv-x="1024" />

    
    <glyph glyph-name="upload-fill" unicode="&#59516;" d="M170.666667 85.33333300000004h682.666666v298.666667h85.333334v-341.333333a42.666667 42.666667 0 0 0-42.666667-42.666667H128a42.666667 42.666667 0 0 0-42.666667 42.666667v341.333333h85.333334v-298.666667zM597.333333 512v-256h-170.666666V512H213.333333l298.666667 298.666667 298.666667-298.666667h-213.333334z"  horiz-adv-x="1024" />

    
    <glyph glyph-name="upload-line" unicode="&#59517;" d="M170.666667 85.33333300000004h682.666666v298.666667h85.333334v-341.333333a42.666667 42.666667 0 0 0-42.666667-42.666667H128a42.666667 42.666667 0 0 0-42.666667 42.666667v341.333333h85.333334v-298.666667z m384 426.666667v-298.666667h-85.333334V512H256l256 256 256-256h-213.333333z"  horiz-adv-x="1024" />

    
    <glyph glyph-name="tools-fill" unicode="&#59204;" d="M227.413333 756.437333a149.333333 149.333333 0 0 0 190.805334-190.890666L880.938667 102.826667l-90.538667-90.496L327.68 475.008a149.333333 149.333333 0 0 0-190.805333 190.890667L232.277333 570.453333a64 64 0 1 1 90.496 90.496L227.370667 756.48z m442.325334-80.384l135.765333 75.434667 60.330667-60.330667-75.434667-135.765333-75.434667-15.104-90.453333-90.496-60.373333 60.330667 90.496 90.496 15.104 75.434666z m-301.696-331.861333l90.496-90.538667-211.2-211.2A64 64 0 0 0 152.746667 128.426667l4.138666 4.565333 211.2 211.2z"  horiz-adv-x="1024" />

    
    <glyph glyph-name="tools-line" unicode="&#59205;" d="M227.413333 756.437333a149.333333 149.333333 0 0 0 181.504-211.754666l456.917334-456.96-60.330667-60.330667-456.96 456.96a149.418667 149.418667 0 0 0-211.712 181.546667L232.277333 570.453333a64 64 0 1 1 90.496 90.496L227.370667 756.48z m442.325334-80.384l135.765333 75.434667 60.330667-60.330667-75.434667-135.765333-75.434667-15.104-90.453333-90.496-60.373333 60.330667 90.496 90.496 15.104 75.434666z m-286.634667-346.965333l60.330667-60.330667-226.261334-226.261333a42.666667 42.666667 0 0 0-63.658666 56.618667l3.328 3.712 226.261333 226.261333z"  horiz-adv-x="1024" />

    
    <glyph glyph-name="database-2-line" unicode="&#59234;" d="M213.333333 362.666667c0-13.354667 19.669333-36.608 65.28-59.434667C337.664 273.706667 421.418667 256 512 256c90.581333 0 174.336 17.706667 233.386667 47.232 45.610667 22.826667 65.28 46.08 65.28 59.434667v92.629333C740.266667 411.776 632.618667 384 512 384s-228.266667 27.818667-298.666667 71.296V362.666667z m597.333334-120.704C740.266667 198.442667 632.618667 170.666667 512 170.666667s-228.266667 27.818667-298.666667 71.296V149.333333c0-13.354667 19.669333-36.608 65.28-59.434666C337.664 60.373333 421.418667 42.666667 512 42.666667c90.581333 0 174.336 17.706667 233.386667 47.232 45.610667 22.826667 65.28 46.08 65.28 59.434666v92.629334zM128 149.333333v426.666667C128 682.026667 299.946667 768 512 768s384-85.973333 384-192v-426.666667c0-106.026667-171.946667-192-384-192s-384 85.973333-384 192z m384 320c90.581333 0 174.336 17.706667 233.386667 47.232C790.997333 539.392 810.666667 562.645333 810.666667 576c0 13.354667-19.669333 36.608-65.28 59.434667C686.336 664.96 602.581333 682.666667 512 682.666667c-90.581333 0-174.336-17.706667-233.386667-47.232C233.002667 612.608 213.333333 589.354667 213.333333 576c0-13.354667 19.669333-36.608 65.28-59.434667C337.664 487.04 421.418667 469.333333 512 469.333333z"  horiz-adv-x="1024" />

    
    <glyph glyph-name="database-2-fill" unicode="&#59248;" d="M896 490.666667v-128c0-106.026667-171.946667-192-384-192s-384 85.973333-384 192v128c0-106.026667 171.946667-192 384-192s384 85.973333 384 192z m-768-213.333334c0-106.026667 171.946667-192 384-192s384 85.973333 384 192v-128c0-106.026667-171.946667-192-384-192s-384 85.973333-384 192v128z m384 106.666667c-212.053333 0-384 85.973333-384 192S299.946667 768 512 768s384-85.973333 384-192-171.946667-192-384-192z"  horiz-adv-x="1024" />

    
    <glyph glyph-name="file-fill" unicode="&#59249;" d="M128 554.666667l256.128 256h469.12C876.8 810.666667 896 791.253333 896 768.341333v-768.682666a42.368 42.368 0 0 0-42.368-42.325334H170.368A42.666667 42.666667 0 0 0 128 0.298667V554.666667z m298.666667 192L192 512H426.666667V746.666667z"  horiz-adv-x="1024" />

    
    <glyph glyph-name="file-line" unicode="&#59250;" d="M384 810.538667V810.666667h469.248C876.8 810.666667 896 791.253333 896 768.341333v-768.682666a42.368 42.368 0 0 0-42.368-42.325334H170.368A42.666667 42.666667 0 0 0 128 0.298667V554.666667l256 255.872zM248.746667 554.666667H384V689.92L248.746667 554.666667zM469.333333 725.333333v-213.333333a42.666667 42.666667 0 0 0-42.666666-42.666667H213.333333v-426.666666h597.333334V725.333333h-341.333334z"  horiz-adv-x="1024" />

    
    <glyph glyph-name="file-list-3-fill" unicode="&#59251;" d="M810.666667-42.666667H213.333333a128 128 0 0 0-128 128V768a42.666667 42.666667 0 0 0 42.666667 42.666667h597.333333a42.666667 42.666667 0 0 0 42.666667-42.666667v-512h170.666667v-170.666667a128 128 0 0 0-128-128z m-42.666667 213.333334v-85.333334a42.666667 42.666667 0 0 1 85.333333 0v85.333334h-85.333333zM256 597.333333v-85.333333h341.333333V597.333333H256z m0-170.666666v-85.333334h341.333333v85.333334H256z m0-170.666667v-85.333333h213.333333v85.333333H256z"  horiz-adv-x="1024" />

    
    <glyph glyph-name="file-list-3-line" unicode="&#59254;" d="M810.666667-42.666667H213.333333a128 128 0 0 0-128 128V768a42.666667 42.666667 0 0 0 42.666667 42.666667h597.333333a42.666667 42.666667 0 0 0 42.666667-42.666667v-512h170.666667v-170.666667a128 128 0 0 0-128-128z m-42.666667 213.333334v-85.333334a42.666667 42.666667 0 0 1 85.333333 0v85.333334h-85.333333z m-85.333333-128V725.333333H170.666667v-640a42.666667 42.666667 0 0 1 42.666666-42.666666h469.333334zM256 597.333333h341.333333v-85.333333H256V597.333333z m0-170.666666h341.333333v-85.333334H256v85.333334z m0-170.666667h213.333333v-85.333333H256v85.333333z"  horiz-adv-x="1024" />

    
    <glyph glyph-name="file-paper-2-fill" unicode="&#59255;" d="M853.333333 810.666667a128 128 0 0 0 128-128v-85.333334h-85.333333v-512a128 128 0 0 0-128-128H170.666667a128 128 0 0 0-128 128v85.333334h682.666666v-85.333334a42.666667 42.666667 0 0 1 37.674667-42.368L768 42.666667a42.666667 42.666667 0 0 1 42.368 37.674666L810.666667 85.333333v170.666667H128V682.666667a128 128 0 0 0 128 128h597.333333z"  horiz-adv-x="1024" />

    
    <glyph glyph-name="file-paper-2-line" unicode="&#59256;" d="M853.333333 810.666667a128 128 0 0 0 128-128v-85.333334h-85.333333v-512a128 128 0 0 0-128-128H170.666667a128 128 0 0 0-128 128v85.333334h682.666666v-85.333334a42.666667 42.666667 0 0 1 37.674667-42.368L768 42.666667a42.666667 42.666667 0 0 1 42.368 37.674666L810.666667 85.333333V725.333333H256a42.666667 42.666667 0 0 1-42.368-37.674666L213.333333 682.666667v-426.666667H128V682.666667a128 128 0 0 0 128 128h597.333333z"  horiz-adv-x="1024" />

    
    <glyph glyph-name="file-shield-2-fill" unicode="&#59257;" d="M896 469.333333H469.333333v-314.965333c0-66.688 33.152-128.981333 88.490667-166.058667l46.208-30.976H170.368A42.368 42.368 0 0 0 128-0.341333V768.341333C128 791.253333 147.072 810.666667 170.581333 810.666667h511.957334L896 597.333333v-128z m-341.333333-85.333333h341.333333v-229.632c0-38.272-19.029333-73.984-50.645333-95.146667L725.333333-21.290667l-120.021333 80.426667A114.56 114.56 0 0 0 554.666667 154.325333V384z"  horiz-adv-x="1024" />

    
    <glyph glyph-name="file-shield-2-line" unicode="&#59258;" d="M597.333333 512V725.333333H213.333333v-682.666666h258.389334a212.906667 212.906667 0 0 1 50.346666-46.293334l59.306667-39.04H170.368A42.368 42.368 0 0 0 128-0.341333V768.341333C128 791.253333 147.157333 810.666667 170.752 810.666667h469.12L896 554.666667v-42.666667h-298.666667z m-85.333333-85.333333h384v-253.824c0-42.24-21.376-81.749333-57.002667-105.173334L704-21.248l-134.997333 88.917333A125.994667 125.994667 0 0 0 512 172.8V426.666667z m85.333333-253.824c0-13.482667 6.912-26.197333 18.602667-33.92l88.064-58.026667 88.064 58.026667a40.704 40.704 0 0 1 18.602667 33.92V341.333333h-213.333334v-168.490666z"  horiz-adv-x="1024" />

    
    <glyph glyph-name="gift-fill" unicode="&#59314;" d="M640 810.666667a170.666667 170.666667 0 0 0 147.797333-256.042667L981.333333 554.666667v-85.333334h-85.333333v-426.666666a42.666667 42.666667 0 0 0-42.666667-42.666667H170.666667a42.666667 42.666667 0 0 0-42.666667 42.666667V469.333333H42.666667V554.666667l193.536-0.042667A170.666667 170.666667 0 0 0 512 752.853333 169.941333 169.941333 0 0 0 640 810.666667z m-85.333333-341.333334h-85.333334v-426.666666h85.333334V469.333333zM384 725.333333a85.333333 85.333333 0 0 1-6.4-170.453333L384 554.666667h85.333333V640a85.333333 85.333333 0 0 1-72.405333 84.352l-6.570667 0.768L384 725.333333z m256 0a85.333333 85.333333 0 0 1-85.12-78.933333L554.666667 640v-85.333333h85.333333a85.333333 85.333333 0 0 1 85.12 78.933333L725.333333 640a85.333333 85.333333 0 0 1-85.333333 85.333333z"  horiz-adv-x="1024" />

    
    <glyph glyph-name="money-cny-box-line" unicode="&#59315;" d="M128 768h768a42.666667 42.666667 0 0 0 42.666667-42.666667v-682.666666a42.666667 42.666667 0 0 0-42.666667-42.666667H128a42.666667 42.666667 0 0 0-42.666667 42.666667V725.333333a42.666667 42.666667 0 0 0 42.666667 42.666667z m42.666667-85.333333v-597.333334h682.666666V682.666667H170.666667z m384-341.333334h128v-85.333333h-128v-85.333333h-85.333334v85.333333H341.333333v85.333333h128v42.666667H341.333333v85.333333h110.336L361.130667 559.829333 421.546667 620.202667 512 529.664l90.496 90.538667 60.373333-60.373334L572.330667 469.333333H682.666667v-85.333333h-128v-42.666667z"  horiz-adv-x="1024" />

    
    <glyph glyph-name="gift-line" unicode="&#59316;" d="M640 810.666667a170.666667 170.666667 0 0 0 147.797333-256.042667L981.333333 554.666667v-85.333334h-85.333333v-426.666666a42.666667 42.666667 0 0 0-42.666667-42.666667H170.666667a42.666667 42.666667 0 0 0-42.666667 42.666667V469.333333H42.666667V554.666667l193.536-0.042667A170.666667 170.666667 0 0 0 512 752.853333 169.941333 169.941333 0 0 0 640 810.666667z m-170.666667-341.333334H213.333333v-384h256v384z m341.333334 0h-256v-384h256v384zM384 725.333333a85.333333 85.333333 0 0 1-6.4-170.453333L384 554.666667h85.333333V640a85.333333 85.333333 0 0 1-72.405333 84.352l-6.570667 0.768L384 725.333333z m256 0a85.333333 85.333333 0 0 1-85.12-78.933333L554.666667 640v-85.333333h85.333333a85.333333 85.333333 0 0 1 85.12 78.933333L725.333333 640a85.333333 85.333333 0 0 1-85.333333 85.333333z"  horiz-adv-x="1024" />

    
    <glyph glyph-name="money-cny-box-fill" unicode="&#59317;" d="M128 768h768a42.666667 42.666667 0 0 0 42.666667-42.666667v-682.666666a42.666667 42.666667 0 0 0-42.666667-42.666667H128a42.666667 42.666667 0 0 0-42.666667 42.666667V725.333333a42.666667 42.666667 0 0 0 42.666667 42.666667z m426.666667-426.666667v42.666667h128v85.333333h-110.336l90.538666 90.496-60.373333 60.373334L512 529.664 421.504 620.202667 361.130667 559.786667 451.669333 469.333333H341.333333v-85.333333h128v-42.666667H341.333333v-85.333333h128v-85.333333h85.333334v85.333333h128v85.333333h-128z"  horiz-adv-x="1024" />

    
    <glyph glyph-name="history" unicode="&#58996;" d="M411.733333 10.666667H192c-6.4 0-10.666667 4.266667-10.666667 10.666666V746.666667c0 6.4 4.266667 10.666667 10.666667 10.666666h576c6.4 0 10.666667-4.266667 10.666667-10.666666v-219.733334c0-17.066667 14.933333-32 32-32s32 14.933333 32 32V746.666667c0 40.533333-34.133333 74.666667-74.666667 74.666666H192C151.466667 821.333333 117.333333 787.2 117.333333 746.666667v-725.333334c0-40.533333 34.133333-74.666667 74.666667-74.666666h219.733333c17.066667 0 32 14.933333 32 32s-14.933333 32-32 32zM704 437.333333c-134.4 0-245.333333-110.933333-245.333333-245.333333S569.6-53.333333 704-53.333333 949.333333 57.6 949.333333 192 838.4 437.333333 704 437.333333z m0-426.666666c-100.266667 0-181.333333 81.066667-181.333333 181.333333s81.066667 181.333333 181.333333 181.333333 181.333333-81.066667 181.333333-181.333333-81.066667-181.333333-181.333333-181.333333zM802.133333 179.2l-66.133333 29.866667V298.666667c0 17.066667-14.933333 32-32 32s-32-14.933333-32-32v-110.933334c0-12.8 8.533333-23.466667 19.2-29.866666l85.333333-38.4c4.266667-2.133333 8.533333-2.133333 12.8-2.133334 12.8 0 23.466667 6.4 29.866667 19.2 6.4 17.066667 0 34.133333-17.066667 42.666667zM693.333333 597.333333c0 17.066667-14.933333 32-32 32H298.666667c-17.066667 0-32-14.933333-32-32s14.933333-32 32-32h362.666666c17.066667 0 32 14.933333 32 32zM298.666667 458.666667c-17.066667 0-32-14.933333-32-32s14.933333-32 32-32h106.666666c17.066667 0 32 14.933333 32 32s-14.933333 32-32 32h-106.666666z"  horiz-adv-x="1024" />

    
    <glyph glyph-name="history-filling" unicode="&#59018;" d="M768 821.333333c40.533333 0 72.533333-32 74.666667-70.4v-294.4c-40.533333 21.333333-89.6 34.133333-138.666667 34.133334-164.266667 0-298.666667-134.4-298.666667-298.666667 0-102.4 51.2-192 128-245.333333H192c-40.533333 0-72.533333 32-74.666667 70.4V746.666667c0 40.533333 32 72.533333 70.4 74.666666H768z m-405.333333-362.666666h-108.8c-17.066667-2.133333-29.866667-14.933333-29.866667-32s12.8-29.866667 29.866667-32H364.8c17.066667 2.133333 29.866667 14.933333 29.866667 32s-14.933333 32-32 32z m320 170.666666H253.866667c-17.066667-2.133333-29.866667-14.933333-29.866667-32s12.8-29.866667 29.866667-32H684.8c17.066667 2.133333 29.866667 14.933333 29.866667 32s-14.933333 32-32 32zM714.666667 426.666667C851.2 426.666667 960 317.866667 960 181.333333S851.2-64 714.666667-64 469.333333 44.8 469.333333 181.333333 578.133333 426.666667 714.666667 426.666667z m0-106.666667c-17.066667 0-32-14.933333-32-32v-113.066667c2.133333-10.666667 8.533333-21.333333 19.2-25.6l85.333333-38.4 2.133333-2.133333c14.933333-4.266667 32 2.133333 38.4 17.066667l2.133334 2.133333c4.266667 14.933333-2.133333 32-17.066667 38.4L746.666667 196.266667V290.133333c-2.133333 17.066667-14.933333 29.866667-32 29.866667z"  horiz-adv-x="1024" />

    
    <glyph glyph-name="file-settings-fill" unicode="&#59252;" d="M682.666667 810.666667l213.333333-213.333334v-597.674666a42.368 42.368 0 0 0-42.368-42.325334H170.368A42.666667 42.666667 0 0 0 128-0.341333V768.341333C128 791.722667 146.986667 810.666667 170.368 810.666667H682.666667zM366.72 349.354667l-42.325333-24.405334 42.666666-73.898666 42.325334 24.448c16.768-15.872 37.248-27.904 59.946666-34.645334V192h85.333334v48.853333a149.162667 149.162667 0 0 1 59.946666 34.645334l42.325334-24.448 42.666666 73.898666-42.325333 24.448a149.76 149.76 0 0 1 0 69.205334l42.325333 24.448-42.666666 73.898666-42.325334-24.448A149.162667 149.162667 0 0 1 554.666667 527.146667V576h-85.333334v-48.853333a149.162667 149.162667 0 0 1-59.946666-34.645334l-42.325334 24.448-42.666666-73.898666 42.325333-24.448a149.76 149.76 0 0 1 0-69.248zM512 320a64 64 0 1 0 0 128 64 64 0 0 0 0-128z"  horiz-adv-x="1024" />

    
    <glyph glyph-name="file-settings-line" unicode="&#59253;" d="M366.72 349.354667a149.76 149.76 0 0 0 0 69.248l-42.325333 24.448 42.666666 73.898666 42.325334-24.448A149.162667 149.162667 0 0 0 469.333333 527.146667V576h85.333334v-48.853333c22.698667-6.741333 43.178667-18.773333 59.946666-34.645334l42.325334 24.448 42.666666-73.898666-42.325333-24.448a149.76 149.76 0 0 0 0-69.205334l42.325333-24.448-42.666666-73.898666-42.325334 24.448a149.162667 149.162667 0 0 0-59.946666-34.645334V192h-85.333334v48.853333a149.162667 149.162667 0 0 0-59.946666 34.645334l-42.325334-24.448-42.666666 73.898666 42.325333 24.405334zM512 320a64 64 0 1 1 0 128 64 64 0 0 1 0-128zM640 725.333333H213.333333v-682.666666h597.333334V554.666667h-170.666667V725.333333zM128 768.341333C128 791.722667 147.072 810.666667 170.624 810.666667H682.666667l213.333333-213.333334v-597.034666A42.666667 42.666667 0 0 0 853.632-42.666667H170.368A42.666667 42.666667 0 0 0 128-0.341333V768.341333z"  horiz-adv-x="1024" />

    
    <glyph glyph-name="user-fill" unicode="&#60631;" d="M170.666667-42.666667a341.333333 341.333333 0 1 0 682.666666 0H170.666667z m341.333333 384c-141.44 0-256 114.56-256 256s114.56 256 256 256 256-114.56 256-256-114.56-256-256-256z"  horiz-adv-x="1024" />

    
    <glyph glyph-name="user-line" unicode="&#60634;" d="M170.666667-42.666667a341.333333 341.333333 0 1 0 682.666666 0h-85.333333a256 256 0 1 1-512 0H170.666667z m341.333333 384c-141.44 0-256 114.56-256 256s114.56 256 256 256 256-114.56 256-256-114.56-256-256-256z m0 85.333334c94.293333 0 170.666667 76.373333 170.666667 170.666666s-76.373333 170.666667-170.666667 170.666667-170.666667-76.373333-170.666667-170.666667 76.373333-170.666667 170.666667-170.666666z"  horiz-adv-x="1024" />

    
    <glyph glyph-name="shield-user-fill" unicode="&#59512;" d="M161.408 775.424L512 853.333333l350.592-77.909333a42.666667 42.666667 0 0 0 33.408-41.642667v-426.112a256 256 0 0 0-114.005333-212.992L512-85.333333l-269.994667 180.010666A256 256 0 0 0 128 307.626667V733.781333a42.666667 42.666667 0 0 0 33.408 41.642667zM512 426.666667a106.666667 106.666667 0 1 1 0 213.333333 106.666667 106.666667 0 0 1 0-213.333333z m-190.848-213.333334h381.696a192 192 0 0 1-381.696 0z"  horiz-adv-x="1024" />

    
    <glyph glyph-name="shield-user-line" unicode="&#59513;" d="M161.408 775.424L512 853.333333l350.592-77.909333a42.666667 42.666667 0 0 0 33.408-41.642667v-426.112a256 256 0 0 0-114.005333-212.992L512-85.333333l-269.994667 180.010666A256 256 0 0 0 128 307.626667V733.781333a42.666667 42.666667 0 0 0 33.408 41.642667zM213.333333 699.562667v-391.893334a170.666667 170.666667 0 0 1 75.989334-141.994666L512 17.194667l222.677333 148.48A170.666667 170.666667 0 0 1 810.666667 307.626667V699.562667L512 765.866667 213.333333 699.562667zM512 426.666667a106.666667 106.666667 0 1 0 0 213.333333 106.666667 106.666667 0 0 0 0-213.333333z m-190.848-213.333334a192 192 0 0 0 381.696 0H321.152z"  horiz-adv-x="1024" />

    
    <glyph glyph-name="user-unfollow-fill" unicode="&#59545;" d="M597.333333 287.914667V-42.666667H170.666667a341.333333 341.333333 0 0 0 426.666666 330.581334zM512 341.333333c-141.44 0-256 114.56-256 256s114.56 256 256 256 256-114.56 256-256-114.56-256-256-256z m298.666667-153.002666l90.496 90.538666 60.373333-60.373333L870.997333 128l90.538667-90.496-60.373333-60.373333L810.666667 67.669333l-90.496-90.538666-60.373334 60.373333L750.336 128l-90.538667 90.496 60.373334 60.373333L810.666667 188.330667z"  horiz-adv-x="1024" />

    
    <glyph glyph-name="user-unfollow-line" unicode="&#59546;" d="M597.333333 287.914667v-89.173334A256 256 0 0 1 256-42.666667l-85.333333 0.042667a341.333333 341.333333 0 0 0 426.666666 330.581333zM512 341.333333c-141.44 0-256 114.56-256 256s114.56 256 256 256 256-114.56 256-256-114.56-256-256-256z m0 85.333334c94.293333 0 170.666667 76.373333 170.666667 170.666666s-76.373333 170.666667-170.666667 170.666667-170.666667-76.373333-170.666667-170.666667 76.373333-170.666667 170.666667-170.666666z m298.666667-281.002667l90.496 90.538667 60.373333-60.373334L870.997333 85.333333l90.538667-90.496-60.373333-60.373333L810.666667 25.002667l-90.496-90.538667-60.373334 60.373333L750.336 85.333333l-90.538667 90.496 60.373334 60.373334L810.666667 145.664z"  horiz-adv-x="1024" />

    
    <glyph glyph-name="shuaxin" unicode="&#59058;" d="M832 339.2c0-179.2-140.8-320-320-320s-320 140.8-320 320 140.8 320 320 320l0-57.6c0-12.8 19.2-25.6 25.6-12.8l96 96C640 691.2 640 704 633.6 710.4L537.6 806.4C531.2 812.8 512 806.4 512 793.6l0-70.4c-211.2 0-384-172.8-384-384s172.8-384 384-384 384 172.8 384 384L832 339.2z"  horiz-adv-x="1024" />

    
    <glyph glyph-name="user-add-fill" unicode="&#59530;" d="M597.333333 287.914667V-42.666667H170.666667a341.333333 341.333333 0 0 0 426.666666 330.581334zM512 341.333333c-141.44 0-256 114.56-256 256s114.56 256 256 256 256-114.56 256-256-114.56-256-256-256z m256-170.666666v128h85.333333v-128h128v-85.333334h-128v-128h-85.333333v128h-128v85.333334h128z"  horiz-adv-x="1024" />

    
    <glyph glyph-name="user-add-line" unicode="&#59531;" d="M597.333333 287.914667v-89.173334A256 256 0 0 1 256-42.666667l-85.333333 0.042667a341.333333 341.333333 0 0 0 426.666666 330.581333zM512 341.333333c-141.44 0-256 114.56-256 256s114.56 256 256 256 256-114.56 256-256-114.56-256-256-256z m0 85.333334c94.293333 0 170.666667 76.373333 170.666667 170.666666s-76.373333 170.666667-170.666667 170.666667-170.666667-76.373333-170.666667-170.666667 76.373333-170.666667 170.666667-170.666666z m256-256v128h85.333333v-128h128v-85.333334h-128v-128h-85.333333v128h-128v85.333334h128z"  horiz-adv-x="1024" />

    
    <glyph glyph-name="user-heart-line" unicode="&#59532;" d="M761.216 227.882667l7.509333-7.552 7.594667 7.552a96 96 0 0 0 135.765333-135.765334l-143.36-143.317333-143.274666 143.317333a96 96 0 0 0 135.765333 135.765334zM512 298.666667v-85.333334a256 256 0 0 1-256-256H170.666667a341.333333 341.333333 0 0 0 330.666666 341.162667L512 298.666667z m0 554.666666c141.44 0 256-114.56 256-256a255.914667 255.914667 0 0 0-246.4-255.829333L512 341.333333c-141.44 0-256 114.56-256 256a255.914667 255.914667 0 0 0 246.4 255.829334L512 853.333333z m0-85.333333C417.706667 768 341.333333 691.626667 341.333333 597.333333s76.373333-170.666667 170.666667-170.666666 170.666667 76.373333 170.666667 170.666666-76.373333 170.666667-170.666667 170.666667z"  horiz-adv-x="1024" />

    
    <glyph glyph-name="user-heart-fill" unicode="&#59533;" d="M761.216 227.882667l7.509333-7.552 7.594667 7.552a96 96 0 0 0 135.765333-135.765334l-143.36-143.317333-143.274666 143.317333a96 96 0 0 0 135.765333 135.765334zM512 298.666667v-341.333334H170.666667a341.333333 341.333333 0 0 0 330.666666 341.162667L512 298.666667z m0 554.666666c141.44 0 256-114.56 256-256s-114.56-256-256-256-256 114.56-256 256 114.56 256 256 256z"  horiz-adv-x="1024" />

    
    <glyph glyph-name="user-shared-2-fill" unicode="&#59539;" d="M597.333333 287.914667V-42.666667H170.666667a341.333333 341.333333 0 0 0 426.666666 330.581334zM512 341.333333c-141.44 0-256 114.56-256 256s114.56 256 256 256 256-114.56 256-256-114.56-256-256-256z m256-170.666666v149.333333l213.333333-192-213.333333-192V85.333333h-128v85.333334h128z"  horiz-adv-x="1024" />

    
    <glyph glyph-name="user-shared-2-line" unicode="&#59540;" d="M597.333333 287.914667v-89.173334A256 256 0 0 1 256-42.666667l-85.333333 0.042667a341.333333 341.333333 0 0 0 426.666666 330.581333zM512 341.333333c-141.44 0-256 114.56-256 256s114.56 256 256 256 256-114.56 256-256-114.56-256-256-256z m0 85.333334c94.293333 0 170.666667 76.373333 170.666667 170.666666s-76.373333 170.666667-170.666667 170.666667-170.666667-76.373333-170.666667-170.666667 76.373333-170.666667 170.666667-170.666666z m256-256v149.333333l213.333333-192-213.333333-192V85.333333h-128v85.333334h128z"  horiz-adv-x="1024" />

    
    <glyph glyph-name="user-star-fill" unicode="&#59541;" d="M512 298.666667v-341.333334H170.666667a341.333333 341.333333 0 0 0 341.333333 341.333334z m256-320l-125.397333-65.92 23.936 139.605333-101.418667 98.901333 140.202667 20.394667L768 298.666667l62.72-127.018667 140.16-20.394667-101.418667-98.901333 23.893334-139.605333L768-21.333333zM512 341.333333c-141.44 0-256 114.56-256 256s114.56 256 256 256 256-114.56 256-256-114.56-256-256-256z"  horiz-adv-x="1024" />

    
    <glyph glyph-name="user-star-line" unicode="&#59542;" d="M512 298.666667v-85.333334a256 256 0 0 1-256-256H170.666667a341.333333 341.333333 0 0 0 341.333333 341.333334z m0 42.666666c-141.44 0-256 114.56-256 256s114.56 256 256 256 256-114.56 256-256-114.56-256-256-256z m0 85.333334c94.293333 0 170.666667 76.373333 170.666667 170.666666s-76.373333 170.666667-170.666667 170.666667-170.666667-76.373333-170.666667-170.666667 76.373333-170.666667 170.666667-170.666666z m256-448l-125.397333-65.92 23.936 139.605333-101.418667 98.901333 140.202667 20.394667L768 298.666667l62.72-127.018667 140.16-20.394667-101.418667-98.901333 23.893334-139.605333L768-21.333333z"  horiz-adv-x="1024" />

    
    <glyph glyph-name="mail-add-line" unicode="&#59095;" d="M938.666667 341.333333h-85.333334V587.178667l-338.261333-302.933334L170.666667 588.117333V85.333333h426.666666v-85.333333H128a42.666667 42.666667 0 0 0-42.666667 42.666667V725.333333a42.666667 42.666667 0 0 0 42.666667 42.666667h768a42.666667 42.666667 0 0 0 42.666667-42.666667v-384zM192.469333 682.666667l322.133334-284.245334L832.085333 682.666667H192.469333zM896 128h128v-85.333333h-128v-128h-85.333333v128h-128v85.333333h128v128h85.333333v-128z"  horiz-adv-x="1024" />

    
    <glyph glyph-name="mail-check-fill" unicode="&#59096;" d="M938.666667 326.784A256 256 0 0 1 611.882667 0H128a42.666667 42.666667 0 0 0-42.666667 42.666667V725.333333a42.666667 42.666667 0 0 0 42.666667 42.666667h768a42.666667 42.666667 0 0 0 42.666667-42.666667v-398.549333z m-424.106667 70.741333L240.981333 629.845333 185.728 564.821333l329.386667-279.68 323.456 279.893334-55.808 64.554666-268.16-232.064zM810.666667-42.666667l-150.869334 150.869334 60.373334 60.330666L810.666667 77.994667l150.869333 150.869333 60.330667-60.330667L810.666667-42.666667z"  horiz-adv-x="1024" />

    
    <glyph glyph-name="mail-check-line" unicode="&#59097;" d="M938.666667 298.666667h-85.333334V587.178667l-338.261333-302.933334L170.666667 588.117333V85.333333h426.666666v-85.333333H128a42.666667 42.666667 0 0 0-42.666667 42.666667V725.333333a42.666667 42.666667 0 0 0 42.666667 42.666667h768a42.666667 42.666667 0 0 0 42.666667-42.666667v-426.666666zM192.469333 682.666667l322.133334-284.245334L832.085333 682.666667H192.469333zM810.666667-42.666667l-150.869334 150.869334 60.373334 60.330666L810.666667 77.994667l150.869333 150.869333 60.330667-60.330667L810.666667-42.666667z"  horiz-adv-x="1024" />

    
    <glyph glyph-name="mail-add-fill" unicode="&#59098;" d="M938.666667 326.784A256 256 0 0 1 611.882667 0H128a42.666667 42.666667 0 0 0-42.666667 42.666667V725.333333a42.666667 42.666667 0 0 0 42.666667 42.666667h768a42.666667 42.666667 0 0 0 42.666667-42.666667v-398.549333z m-424.106667 70.741333L240.981333 629.845333 185.728 564.821333l329.386667-279.68 323.456 279.893334-55.808 64.554666-268.16-232.064zM896 128h128v-85.333333h-128v-128h-85.333333v128h-128v85.333333h128v128h85.333333v-128z"  horiz-adv-x="1024" />

    
    <glyph glyph-name="mail-close-line" unicode="&#59099;" d="M938.666667 298.666667h-85.333334V587.178667l-338.261333-302.933334L170.666667 588.117333V85.333333h469.333333v-85.333333H128a42.666667 42.666667 0 0 0-42.666667 42.666667V725.333333a42.666667 42.666667 0 0 0 42.666667 42.666667h768a42.666667 42.666667 0 0 0 42.666667-42.666667v-426.666666zM192.469333 682.666667l322.133334-284.245334L832.085333 682.666667H192.469333z m721.194667-597.333334l90.538667-90.496-60.373334-60.373333L853.333333 25.002667l-90.496-90.538667-60.373333 60.373333L793.002667 85.333333l-90.538667 90.496 60.373333 60.373334L853.333333 145.664l90.496 90.538667 60.373334-60.373334L913.664 85.333333z"  horiz-adv-x="1024" />

    
    <glyph glyph-name="mail-download-line" unicode="&#59100;" d="M853.333333 587.178667l-338.261333-302.933334L170.666667 588.117333V85.333333h384v-85.333333H128a42.666667 42.666667 0 0 0-42.666667 42.666667V725.333333a42.666667 42.666667 0 0 0 42.666667 42.666667h768a42.666667 42.666667 0 0 0 42.666667-42.666667v-341.333333h-85.333334V587.178667zM832.042667 682.666667H192.469333l322.133334-284.245334L832.085333 682.666667zM853.333333 128h128l-170.666666-170.666667-170.666667 170.666667h128v170.666667h85.333333v-170.666667z"  horiz-adv-x="1024" />

    
    <glyph glyph-name="mail-close-fill" unicode="&#59102;" d="M938.666667 326.784A256 256 0 0 1 611.882667 0H128a42.666667 42.666667 0 0 0-42.666667 42.666667V725.333333a42.666667 42.666667 0 0 0 42.666667 42.666667h768a42.666667 42.666667 0 0 0 42.666667-42.666667v-398.549333z m-424.106667 70.741333L240.981333 629.845333 185.728 564.821333l329.386667-279.68 323.456 279.893334-55.808 64.554666-268.16-232.064zM913.706667 85.333333l90.538666-90.496-60.373333-60.373333L853.333333 25.002667l-90.496-90.538667-60.373333 60.373333L793.002667 85.333333l-90.538667 90.496 60.373333 60.373334L853.333333 145.664l90.496 90.538667 60.373334-60.373334L913.664 85.333333z"  horiz-adv-x="1024" />

    
    <glyph glyph-name="mail-fill" unicode="&#59112;" d="M128 768h768a42.666667 42.666667 0 0 0 42.666667-42.666667v-682.666666a42.666667 42.666667 0 0 0-42.666667-42.666667H128a42.666667 42.666667 0 0 0-42.666667 42.666667V725.333333a42.666667 42.666667 0 0 0 42.666667 42.666667z m386.56-370.474667L240.981333 629.845333 185.728 564.821333l329.386667-279.68 323.456 279.893334-55.808 64.554666-268.16-232.064z"  horiz-adv-x="1024" />

    
    <glyph glyph-name="mail-forbid-fill" unicode="&#59113;" d="M651.349333 403.029333l187.221334 162.048-55.808 64.512-268.16-232.064-273.664 232.32-55.210667-65.024 328.618667-279.04A297.258667 297.258667 0 0 1 469.333333 128c0-45.824 10.325333-89.173333 28.757334-128H128a42.666667 42.666667 0 0 0-42.666667 42.666667V725.333333a42.666667 42.666667 0 0 0 42.666667 42.666667h768a42.666667 42.666667 0 0 0 42.666667-42.666667v-352.213333A297.301333 297.301333 0 0 1 768 426.666667c-41.386667 0-80.810667-8.405333-116.650667-23.637334z m61.44-390.570666a128 128 0 0 1 170.709334 170.709333l-170.666667-170.666667z m-60.330666 60.373333l170.709333 170.666667a128 128 0 0 1-170.709333-170.709334zM768-85.333333a213.333333 213.333333 0 1 0 0 426.666666 213.333333 213.333333 0 0 0 0-426.666666z"  horiz-adv-x="1024" />

    
    <glyph glyph-name="mail-line" unicode="&#59121;" d="M128 768h768a42.666667 42.666667 0 0 0 42.666667-42.666667v-682.666666a42.666667 42.666667 0 0 0-42.666667-42.666667H128a42.666667 42.666667 0 0 0-42.666667 42.666667V725.333333a42.666667 42.666667 0 0 0 42.666667 42.666667z m725.333333-180.821333l-338.261333-302.933334L170.666667 588.117333V85.333333h682.666666V587.178667zM192.469333 682.666667l322.133334-284.245334L832.085333 682.666667H192.469333z"  horiz-adv-x="1024" />

    
    <glyph glyph-name="mail-forbid-line" unicode="&#59124;" d="M853.333333 587.178667l-338.261333-302.933334L170.666667 588.117333V85.333333h301.653333a296.533333 296.533333 0 0 1 25.770667-85.333333H128a42.666667 42.666667 0 0 0-42.666667 42.666667V725.333333a42.666667 42.666667 0 0 0 42.666667 42.666667h768a42.666667 42.666667 0 0 0 42.666667-42.666667v-352.213333a297.472 297.472 0 0 1-85.333334 41.173333V587.178667zM832.042667 682.666667H192.469333l322.133334-284.245334L832.085333 682.666667z m-119.210667-670.208a128 128 0 0 1 170.709333 170.709333l-170.709333-170.666667z m-60.373333 60.373333l170.709333 170.666667a128 128 0 0 1-170.709333-170.709334zM768-85.333333a213.333333 213.333333 0 1 0 0 426.666666 213.333333 213.333333 0 0 0 0-426.666666z"  horiz-adv-x="1024" />

    
    <glyph glyph-name="mail-lock-fill" unicode="&#59125;" d="M938.666667 384a213.418667 213.418667 0 0 1-337.066667-128H554.666667v-256H128a42.666667 42.666667 0 0 0-42.666667 42.666667V725.333333a42.666667 42.666667 0 0 0 42.666667 42.666667h768a42.666667 42.666667 0 0 0 42.666667-42.666667v-341.333333z m-424.106667 13.525333L240.981333 629.845333 185.728 564.821333l329.386667-279.68 323.456 279.893334-55.808 64.554666-268.16-232.064zM938.666667 170.666667h42.666666v-213.333334h-341.333333v213.333334h42.666667v42.666666a128 128 0 0 0 256 0v-42.666666z m-85.333334 0v42.666666a42.666667 42.666667 0 0 1-85.333333 0v-42.666666h85.333333z"  horiz-adv-x="1024" />

    
    <glyph glyph-name="mail-download-fill" unicode="&#59128;" d="M938.666667 349.738667A256 256 0 0 1 588.928 0H128a42.666667 42.666667 0 0 0-42.666667 42.666667V725.333333a42.666667 42.666667 0 0 0 42.666667 42.666667h768a42.666667 42.666667 0 0 0 42.666667-42.666667v-375.594666z m-424.106667 47.786666L240.981333 629.845333 185.728 564.821333l329.386667-279.68 323.456 279.893334-55.808 64.554666-268.16-232.064zM853.333333 128h128l-170.666666-170.666667-170.666667 170.666667h128v170.666667h85.333333v-170.666667z"  horiz-adv-x="1024" />

    
    <glyph glyph-name="mail-lock-line" unicode="&#59129;" d="M853.333333 587.178667l-338.261333-302.933334L170.666667 588.117333V85.333333h384v-85.333333H128a42.666667 42.666667 0 0 0-42.666667 42.666667V725.333333a42.666667 42.666667 0 0 0 42.666667 42.666667h768a42.666667 42.666667 0 0 0 42.666667-42.666667v-298.666666h-85.333334V587.178667zM832.042667 682.666667H192.469333l322.133334-284.245334L832.085333 682.666667zM938.666667 170.666667h42.666666v-213.333334h-341.333333v213.333334h42.666667v42.666666a128 128 0 0 0 256 0v-42.666666z m-85.333334 0v42.666666a42.666667 42.666667 0 0 1-85.333333 0v-42.666666h85.333333z"  horiz-adv-x="1024" />

    
    <glyph glyph-name="mail-open-fill" unicode="&#59218;" d="M95.701333 603.562667L490.24 840.106667a42.666667 42.666667 0 0 0 43.904 0l394.154667-236.586667a21.333333 21.333333 0 0 0 10.368-18.304V42.666667a42.666667 42.666667 0 0 0-42.666667-42.666667H128a42.666667 42.666667 0 0 0-42.666667 42.666667V585.258667a21.333333 21.333333 0 0 0 10.368 18.304z m687.061334-59.306667l-268.16-232.064-273.664 232.32-55.210667-65.024 329.386667-279.68 323.456 279.893333-55.808 64.554667z"  horiz-adv-x="1024" />

    
    <glyph glyph-name="mail-open-line" unicode="&#59219;" d="M95.701333 603.562667L490.24 840.106667a42.666667 42.666667 0 0 0 43.904 0l394.154667-236.586667a21.333333 21.333333 0 0 0 10.368-18.304V42.666667a42.666667 42.666667 0 0 0-42.666667-42.666667H128a42.666667 42.666667 0 0 0-42.666667 42.666667V585.258667a21.333333 21.333333 0 0 0 10.368 18.304zM170.666667 548.992V85.333333h682.666666V549.034667l-341.162666 204.8L170.666667 549.034667z m343.893333-237.44l225.962667 190.421333 54.954666-65.28-280.32-236.245333-286.293333 235.946667 54.272 65.877333 231.424-190.72z"  horiz-adv-x="1024" />

    
    <glyph glyph-name="mail-send-line" unicode="&#59220;" d="M938.666667 42.368a42.666667 42.666667 0 0 0-42.325334-42.368H127.658667A42.368 42.368 0 0 0 85.333333 42.368V85.333333h768V584.533333l-341.333333-307.2-426.666667 384V725.333333a42.666667 42.666667 0 0 0 42.666667 42.666667h768a42.666667 42.666667 0 0 0 42.666667-42.666667v-682.965333zM189.184 682.666667L512 392.106667 834.816 682.666667H189.184zM0 256h341.333333v-85.333333H0v85.333333z m0 213.333333h213.333333v-85.333333H0v85.333333z"  horiz-adv-x="1024" />

    
    <glyph glyph-name="mail-send-fill" unicode="&#59222;" d="M85.333333 661.333333V725.632A42.666667 42.666667 0 0 0 127.658667 768h768.682666c23.381333 0 42.325333-18.986667 42.325334-42.368v-683.264a42.666667 42.666667 0 0 0-42.325334-42.368H127.658667A42.368 42.368 0 0 0 85.333333 42.368V85.333333h768V584.533333l-341.333333-307.2-426.666667 384zM0 469.333333h213.333333v-85.333333H0v85.333333z m0-213.333333h341.333333v-85.333333H0v85.333333z"  horiz-adv-x="1024" />

    
    <glyph glyph-name="mail-settings-line" unicode="&#59225;" d="M853.333333 587.178667l-338.261333-302.933334L170.666667 588.117333V85.333333h426.666666v-85.333333H128a42.666667 42.666667 0 0 0-42.666667 42.666667V725.333333a42.666667 42.666667 0 0 0 42.666667 42.666667h768a42.666667 42.666667 0 0 0 42.666667-42.666667v-384h-85.333334V587.178667zM832.042667 682.666667H192.469333l322.133334-284.245334L832.085333 682.666667zM727.466667 61.952a128.725333 128.725333 0 0 0 0 46.762667l-43.264 25.002666 42.666666 73.898667 43.264-25.002667c11.861333 10.154667 25.557333 18.133333 40.533334 23.466667V256h85.333333v-49.92c14.976-5.333333 28.672-13.312 40.533333-23.466667l43.264 25.002667 42.666667-73.898667-43.264-25.002666a128.725333 128.725333 0 0 0 0-46.762667l43.264-25.002667-42.666667-73.898666-43.264 25.002666a127.872 127.872 0 0 0-40.533333-23.466666V-85.333333h-85.333333v49.92a127.872 127.872 0 0 0-40.533334 23.466666l-43.264-25.002666-42.666666 73.898666 43.264 25.002667zM853.333333 42.666667a42.666667 42.666667 0 1 1 0 85.333333 42.666667 42.666667 0 0 1 0-85.333333z"  horiz-adv-x="1024" />

    
    <glyph glyph-name="mail-star-line" unicode="&#59226;" d="M938.666667 341.333333h-85.333334V587.178667l-338.261333-302.933334L170.666667 588.117333V85.333333h426.666666v-85.333333H128a42.666667 42.666667 0 0 0-42.666667 42.666667V725.333333a42.666667 42.666667 0 0 0 42.666667 42.666667h768a42.666667 42.666667 0 0 0 42.666667-42.666667v-384zM192.469333 682.666667l322.133334-284.245334L832.085333 682.666667H192.469333zM832-32l-112.853333-59.306667 21.546666 125.653334-91.306666 89.002666 126.165333 18.346667L832 256l56.448-114.346667 126.165333-18.346666-91.306666-88.96 21.546666-125.696L832-32z"  horiz-adv-x="1024" />

    
    <glyph glyph-name="mail-star-fill" unicode="&#59231;" d="M938.666667 296.789333A256 256 0 0 1 584.064 0H128a42.666667 42.666667 0 0 0-42.666667 42.666667V725.333333a42.666667 42.666667 0 0 0 42.666667 42.666667h768a42.666667 42.666667 0 0 0 42.666667-42.666667v-428.544z m-424.106667 100.736L240.981333 629.845333 185.728 564.821333l329.386667-279.68 323.456 279.893334-55.808 64.554666-268.16-232.064zM832-32l-112.853333-59.306667 21.546666 125.653334-91.306666 89.002666 126.165333 18.346667L832 256l56.448-114.346667 126.165333-18.346666-91.306666-88.96 21.546666-125.696L832-32z"  horiz-adv-x="1024" />

    
    <glyph glyph-name="mail-unread-line" unicode="&#59232;" d="M686.933333 768a214.314667 214.314667 0 0 1 0-85.333333H192.469333l322.133334-284.245334 215.424 192.853334c18.176-22.485333 40.874667-41.216 66.688-54.826667l-281.642667-252.202667L170.666667 588.117333V85.333333h682.666666V516.266667a214.314667 214.314667 0 0 1 85.333334 0V42.666667a42.666667 42.666667 0 0 0-42.666667-42.666667H128a42.666667 42.666667 0 0 0-42.666667 42.666667V725.333333a42.666667 42.666667 0 0 0 42.666667 42.666667h558.933333zM896 597.333333a128 128 0 1 0 0 256 128 128 0 0 0 0-256z"  horiz-adv-x="1024" />

    
    <glyph glyph-name="mail-unread-fill" unicode="&#59238;" d="M802.261333 533.632A214.314667 214.314667 0 0 1 938.666667 516.266667V42.666667a42.666667 42.666667 0 0 0-42.666667-42.666667H128a42.666667 42.666667 0 0 0-42.666667 42.666667V725.333333a42.666667 42.666667 0 0 0 42.666667 42.666667h558.933333c-2.816-13.781333-4.266667-28.074667-4.266666-42.666667a212.48 212.48 0 0 1 50.901333-138.282666l-218.965333-189.525334-273.664 232.32-55.210667-65.024 329.386667-279.68 287.146666 248.490667zM896 597.333333a128 128 0 1 0 0 256 128 128 0 0 0 0-256z"  horiz-adv-x="1024" />

    
    <glyph glyph-name="mail-volume-line" unicode="&#59239;" d="M853.333333 277.333333v-384L711.125333 0H597.333333v170.666667h113.792L853.333333 277.333333zM896 768a42.666667 42.666667 0 0 0 42.666667-42.666667v-384h-85.333334V587.221333l-338.261333-302.976L170.666667 588.16V85.333333h341.333333v-85.333333H128a42.666667 42.666667 0 0 0-42.666667 42.666667V725.333333a42.666667 42.666667 0 0 0 42.666667 42.666667h768z m0-597.333333a85.333333 85.333333 0 0 0 6.4-170.453334L896 0v170.666667zM832 682.666667H192.469333l322.133334-284.245334L832 682.666667z"  horiz-adv-x="1024" />

    
    <glyph glyph-name="mail-settings-fill" unicode="&#59240;" d="M938.666667 326.784A256 256 0 0 1 611.882667 0H128a42.666667 42.666667 0 0 0-42.666667 42.666667V725.333333a42.666667 42.666667 0 0 0 42.666667 42.666667h768a42.666667 42.666667 0 0 0 42.666667-42.666667v-398.549333z m-424.106667 70.741333L240.981333 629.845333 185.728 564.821333l329.386667-279.68 323.456 279.893334-55.808 64.554666-268.16-232.064z m212.906667-335.573333a128.725333 128.725333 0 0 0 0 46.762667l-43.264 25.002666 42.666666 73.898667 43.264-25.002667c11.861333 10.154667 25.557333 18.133333 40.533334 23.466667V256h85.333333v-49.92c14.976-5.333333 28.672-13.312 40.533333-23.466667l43.264 25.002667 42.666667-73.898667-43.264-25.002666a128.725333 128.725333 0 0 0 0-46.762667l43.264-25.002667-42.666667-73.898666-43.264 25.002666a127.872 127.872 0 0 0-40.533333-23.466666V-85.333333h-85.333333v49.92a127.872 127.872 0 0 0-40.533334 23.466666l-43.264-25.002666-42.666666 73.898666 43.264 25.002667zM853.333333 42.666667a42.666667 42.666667 0 1 1 0 85.333333 42.666667 42.666667 0 0 1 0-85.333333z"  horiz-adv-x="1024" />

    
    <glyph glyph-name="mail-volume-fill" unicode="&#59241;" d="M853.333333 277.333333v-384L711.125333 0H597.333333v170.666667h113.792L853.333333 277.333333zM896 768a42.666667 42.666667 0 0 0 42.666667-42.666667v-449.237333A256 256 0 0 1 526.506667 0H128.085333a42.666667 42.666667 0 0 0-42.666666 42.666667V725.333333a42.666667 42.666667 0 0 0 42.666666 42.666667h768z m0-597.333333a85.333333 85.333333 0 0 0 6.4-170.453334L896 0v170.666667zM240.938667 629.845333L185.728 564.821333l329.386667-279.68 323.456 279.893334-55.808 64.554666-268.202667-232.021333-273.621333 232.277333z"  horiz-adv-x="1024" />

    
    <glyph glyph-name="edit-2-fill" unicode="&#59243;" d="M394.368 85.333333H896v-85.333333H128v181.034667l422.4 422.4 180.992-181.077334L394.325333 85.333333z m216.32 578.389334l90.538667 90.538666a42.666667 42.666667 0 0 0 60.330666 0l120.704-120.704a42.666667 42.666667 0 0 0 0-60.330666l-90.538666-90.496-180.992 180.992z"  horiz-adv-x="1024" />

    
    <glyph glyph-name="edit-2-line" unicode="&#59245;" d="M213.333333 85.333333h60.330667l397.397333 397.397334-60.330666 60.330666L213.333333 145.664V85.333333z m682.666667-85.333333H128v181.034667L701.226667 754.261333a42.666667 42.666667 0 0 0 60.330666 0l120.704-120.704a42.666667 42.666667 0 0 0 0-60.330666L394.368 85.333333H896v-85.333333zM671.061333 603.392l60.330667-60.330667 60.330667 60.330667-60.330667 60.330667-60.330667-60.330667z"  horiz-adv-x="1024" />

    
    <glyph glyph-name="file-code-fill" unicode="&#59246;" d="M682.666667 810.666667l213.333333-213.333334v-597.674666a42.368 42.368 0 0 0-42.368-42.325334H170.368A42.666667 42.666667 0 0 0 128-0.341333V768.341333C128 791.722667 146.986667 810.666667 170.368 810.666667H682.666667z m70.698666-426.666667L602.453333 534.869333 542.165333 474.453333 632.661333 384l-90.453333-90.496 60.288-60.373333L753.365333 384zM270.634667 384l150.869333-150.869333 60.330667 60.373333L391.338667 384l90.453333 90.496L421.546667 534.869333 270.634667 384z"  horiz-adv-x="1024" />

    
    <glyph glyph-name="file-code-line" unicode="&#59247;" d="M640 725.333333H213.333333v-682.666666h597.333334V554.666667h-170.666667V725.333333zM128 768.341333C128 791.722667 147.072 810.666667 170.624 810.666667H682.666667l213.333333-213.333334v-597.034666A42.666667 42.666667 0 0 0 853.632-42.666667H170.368A42.666667 42.666667 0 0 0 128-0.341333V768.341333zM753.365333 384l-150.869333-150.869333-60.330667 60.373333L632.661333 384l-90.453333 90.496 60.288 60.373333L753.365333 384zM270.634667 384L421.546667 534.869333l60.330666-60.373333L391.338667 384l90.453333-90.496-60.288-60.373333L270.634667 384z"  horiz-adv-x="1024" />

    
    <glyph glyph-name="reactjs-line" unicode="&#59357;" d="M512 320a64 64 0 1 0 0 128 64 64 0 0 0 0-128z m-22.528-127.744c7.466667-8.96 14.976-17.664 22.528-25.984 7.552 8.32 15.061333 16.981333 22.528 25.984a1061.674667 1061.674667 0 0 0-45.056 0z m-85.12 5.333333a882.261333 882.261333 0 0 0-97.493333 15.701334c-3.2-14.933333-5.632-29.44-7.253334-43.349334-8.106667-67.541333 3.2-108.586667 20.394667-118.485333 17.194667-9.941333 58.368 0.810667 112.853333 41.557333 11.221333 8.405333 22.528 17.749333 33.877334 27.946667a882.261333 882.261333 0 0 0-62.378667 76.629333z m312.789333 15.701334a860.586667 860.586667 0 0 0-97.493333-15.701334 882.261333 882.261333 0 0 0-62.378667-76.629333c11.349333-10.24 22.656-19.541333 33.877334-27.946667 54.485333-40.746667 95.658667-51.498667 112.853333-41.557333 17.194667 9.898667 28.458667 50.944 20.437333 118.485333a484.693333 484.693333 0 0 1-7.253333 43.349334z m61.866667 16.512c24.618667-112.597333 11.690667-202.24-43.008-233.813334-54.698667-31.573333-138.794667 2.048-224 79.658667-85.205333-77.610667-169.301333-111.189333-224-79.616-54.698667 31.573333-67.626667 121.173333-43.050667 233.813333C135.125333 264.789333 64 320.853333 64 384s71.125333 119.168 180.949333 154.197333c-24.576 112.597333-11.648 202.24 43.050667 233.813334 54.698667 31.573333 138.794667-2.048 224-79.658667 85.205333 77.610667 169.301333 111.189333 224 79.616 54.698667-31.573333 67.626667-121.173333 43.050667-233.813333C888.874667 503.210667 960 447.146667 960 384s-71.125333-119.168-180.949333-154.197333z m-312.32 417.237333a484.693333 484.693333 0 0 1-33.834667 27.946667C378.368 715.733333 337.194667 726.485333 320 716.544c-17.194667-9.898667-28.458667-50.944-20.437333-118.485333 1.706667-13.952 4.096-28.416 7.253333-43.349334a882.261333 882.261333 0 0 0 97.536 15.701334c20.266667 27.861333 41.173333 53.504 62.378667 76.629333z m152.96-76.629333c34.218667-3.584 66.901333-8.917333 97.493333-15.701334 3.2 14.933333 5.632 29.44 7.253334 43.349334 8.106667 67.541333-3.2 108.586667-20.394667 118.485333-17.194667 9.941333-58.368-0.810667-112.853333-41.557333a484.693333 484.693333 0 0 1-33.877334-27.946667c21.205333-23.125333 42.112-48.768 62.378667-76.629333z m-85.12 5.333333c-7.466667 8.96-14.976 17.664-22.528 25.984-7.552-8.32-15.061333-16.981333-22.528-25.984a1061.717333 1061.717333 0 0 0 45.056 0z m-177.322667-307.114667a1061.717333 1061.717333 0 0 0-22.528 38.997334c-4.053333-10.965333-7.808-21.76-11.221333-32.469334 10.965333-2.389333 22.229333-4.565333 33.706667-6.528z m82.432-9.984a976.938667 976.938667 0 0 1 144.725334 0A976.938667 976.938667 0 0 1 656.725333 384a976.938667 976.938667 0 0 1-72.362666 125.354667 976.938667 976.938667 0 0 1-144.725334 0A976.938667 976.938667 0 0 1 367.274667 384a976.938667 976.938667 0 0 1 72.362666-125.354667z m249.685334 201.728c4.053333 10.965333 7.808 21.76 11.221333 32.469334a766.890667 766.890667 0 0 1-33.706667 6.528 1061.717333 1061.717333 0 0 0 22.485334-38.997334zM261.546667 476.288c-14.506667-4.693333-28.245333-9.813333-41.130667-15.36C157.909333 434.133333 128 403.84 128 384c0-19.84 29.866667-50.133333 92.416-76.928 12.885333-5.546667 26.624-10.666667 41.130667-15.36 9.472 29.866667 21.205333 60.842667 35.2 92.288a882.261333 882.261333 0 0 0-35.2 92.288z m61.866666 16.554667c3.456-10.666667 7.210667-21.504 11.264-32.426667a1061.717333 1061.717333 0 0 0 22.528 38.954667c-11.52-1.962667-22.784-4.138667-33.749333-6.528z m439.04-201.130667c14.506667 4.693333 28.245333 9.813333 41.130667 15.36C866.090667 333.866667 896 364.16 896 384c0 19.84-29.866667 50.133333-92.416 76.928a484.693333 484.693333 0 0 1-41.130667 15.36c-9.472-29.866667-21.205333-60.842667-35.2-92.288 13.994667-31.445333 25.728-62.378667 35.2-92.288z m-61.866666-16.554667a817.92 817.92 0 0 1-11.264 32.426667 1061.717333 1061.717333 0 0 0-22.528-38.954667c11.52 1.962667 22.784 4.138667 33.749333 6.528z"  horiz-adv-x="1024" />

    
    <glyph glyph-name="reactjs-fill" unicode="&#59358;" d="M616.448 203.093333a933.418667 933.418667 0 0 0-74.538667-92.8c71.338667-69.248 137.728-101.674667 174.506667-80.384 36.864 21.248 41.941333 94.933333 17.664 191.317334-36.394667-8.106667-75.946667-14.250667-117.632-18.133334z m-55.893333-3.712a1173.845333 1173.845333 0 0 0-97.109334 0c16.085333-20.992 32.341333-40.448 48.554667-58.197333 16.213333 17.749333 32.426667 37.205333 48.554667 58.197333z m215.04 336.810667c113.706667-32.597333 187.946667-86.784 187.946666-152.192 0-65.408-74.24-119.594667-187.946666-152.192 28.586667-114.773333 18.816-206.165333-37.802667-238.848-56.661333-32.725333-140.714667 4.48-225.792 86.613333-85.077333-82.133333-169.130667-119.338667-225.792-86.613333-56.618667 32.682667-66.432 124.074667-37.802667 238.848-113.706667 32.597333-187.946667 86.784-187.946666 152.192 0 65.408 74.24 119.594667 187.946666 152.192-28.586667 114.773333-18.816 206.165333 37.802667 238.848 56.661333 32.725333 140.714667-4.48 225.792-86.613333 85.077333 82.133333 169.130667 119.338667 225.792 86.613333 56.618667-32.682667 66.432-124.074667 37.802667-238.848z m-41.514667 10.581333c24.32 96.426667 19.2 170.069333-17.621333 191.317334-36.821333 21.290667-103.210667-11.136-174.506667-80.384a940.757333 940.757333 0 0 0 74.496-92.8c41.728-3.84 81.237333-9.984 117.632-18.133334z m-444.16-325.546666c-24.32-96.426667-19.2-170.069333 17.621333-191.317334 36.821333-21.290667 103.210667 11.136 174.506667 80.384a933.418667 933.418667 0 0 0-74.496 92.8 933.418667 933.418667 0 0 0-117.632 18.133334z m173.525333 347.392a1173.845333 1173.845333 0 0 0 97.109334 0A875.648 875.648 0 0 1 512 626.773333c-16.213333-17.749333-32.426667-37.205333-48.554667-58.197333z m-55.893333-3.712A933.418667 933.418667 0 0 0 482.133333 657.706667C410.752 726.954667 344.32 759.381333 307.584 738.090667c-36.864-21.248-41.941333-94.933333-17.664-191.317334 36.394667 8.106667 75.946667 14.250667 117.632 18.133334z m185.258667-320.853334A1082.368 1082.368 0 0 1 673.578667 384a1082.368 1082.368 0 0 1-80.768 139.946667 1082.368 1082.368 0 0 1-161.621334 0A1082.368 1082.368 0 0 1 350.421333 384a1082.368 1082.368 0 0 1 80.768-139.946667 1082.368 1082.368 0 0 1 161.621334 0z m54.784 5.589334c26.24 3.413333 51.2 7.808 74.666666 12.970666a875.648 875.648 0 0 1-26.112 71.125334 1173.845333 1173.845333 0 0 0-48.554666-84.053334zM376.405333 518.4c-26.24-3.413333-51.2-7.808-74.666666-12.970667 7.253333-22.869333 15.957333-46.677333 26.112-71.125333a1173.845333 1173.845333 0 0 0 48.554666 84.053333z m-74.666666-255.744c23.466667-5.162667 48.426667-9.514667 74.666666-12.970667a1173.845333 1173.845333 0 0 0-48.554666 84.053334 871.253333 871.253333 0 0 1-26.112-71.082667z m-41.728 10.453333c11.136 35.584 25.6 72.874667 43.093333 110.933334a938.752 938.752 0 0 0-43.093333 110.933333c-95.658667-27.178667-156.885333-68.437333-156.885334-110.933333s61.226667-83.754667 156.885334-110.933334z m462.250666 232.32a887.808 887.808 0 0 1-74.666666 12.970667 1173.802667 1173.802667 0 0 0 48.554666-84.053333c10.154667 24.405333 18.858667 48.213333 26.112 71.082666z m41.728-10.453333c-11.136-35.584-25.6-72.874667-43.093333-110.933333 17.493333-38.058667 31.957333-75.349333 43.093333-110.933334 95.658667 27.178667 156.885333 68.437333 156.885334 110.933334s-61.226667 83.754667-156.885334 110.933333zM512 303.786667a80.213333 80.213333 0 1 0 0 160.426666 80.213333 80.213333 0 0 0 0-160.426666z"  horiz-adv-x="1024" />

    
    <glyph glyph-name="logout-box-line" unicode="&#59490;" d="M170.666667 128h85.333333v-85.333333h512V725.333333H256v-85.333333H170.666667V768a42.666667 42.666667 0 0 0 42.666666 42.666667h597.333334a42.666667 42.666667 0 0 0 42.666666-42.666667v-768a42.666667 42.666667 0 0 0-42.666666-42.666667H213.333333a42.666667 42.666667 0 0 0-42.666666 42.666667v128z m85.333333 298.666667h298.666667v-85.333334H256v-128l-213.333333 170.666667 213.333333 170.666667v-128z"  horiz-adv-x="1024" />

    
    <glyph glyph-name="logout-box-r-line" unicode="&#59491;" d="M213.333333-42.666667a42.666667 42.666667 0 0 0-42.666666 42.666667V768a42.666667 42.666667 0 0 0 42.666666 42.666667h597.333334a42.666667 42.666667 0 0 0 42.666666-42.666667v-128h-85.333333V725.333333H256v-682.666666h512v85.333333h85.333333v-128a42.666667 42.666667 0 0 0-42.666666-42.666667H213.333333z m554.666667 256v128h-298.666667v85.333334h298.666667V554.666667l213.333333-170.666667-213.333333-170.666667z"  horiz-adv-x="1024" />

    
    <glyph glyph-name="group-fill" unicode="&#59523;" d="M85.333333-42.666667a341.333333 341.333333 0 1 0 682.666667 0H85.333333z m341.333334 384c-141.44 0-256 114.56-256 256s114.56 256 256 256 256-114.56 256-256-114.56-256-256-256z m314.154666-95.274666A320.213333 320.213333 0 0 0 980.608-42.666667H853.333333c0 111.36-42.666667 212.736-112.512 288.725334z m-86.314666 97.109333A340.48 340.48 0 0 1 768 597.333333a339.797333 339.797333 0 0 1-43.306667 166.528A213.333333 213.333333 0 0 0 896 554.666667a213.290667 213.290667 0 0 0-241.493333-211.498667z"  horiz-adv-x="1024" />

    
    <glyph glyph-name="group-line" unicode="&#59524;" d="M85.333333-42.666667a341.333333 341.333333 0 1 0 682.666667 0h-85.333333a256 256 0 1 1-512 0H85.333333z m341.333334 384c-141.44 0-256 114.56-256 256s114.56 256 256 256 256-114.56 256-256-114.56-256-256-256z m0 85.333334c94.293333 0 170.666667 76.373333 170.666666 170.666666s-76.373333 170.666667-170.666666 170.666667-170.666667-76.373333-170.666667-170.666667 76.373333-170.666667 170.666667-170.666666z m353.450666-157.994667A341.418667 341.418667 0 0 0 981.333333-42.666667h-85.333333a256.042667 256.042667 0 0 1-150.912 233.514667l34.986667 77.824z m-29.354666 481.706667A234.666667 234.666667 0 0 0 896 533.333333a234.624 234.624 0 0 0-213.333333-233.728v85.888a149.333333 149.333333 0 0 1 44.416 281.984l23.68 82.901334z"  horiz-adv-x="1024" />

    
    <glyph glyph-name="user-settings-line" unicode="&#59537;" d="M512 298.666667v-85.333334a256 256 0 0 1-256-256H170.666667a341.333333 341.333333 0 0 0 341.333333 341.333334z m0 42.666666c-141.44 0-256 114.56-256 256s114.56 256 256 256 256-114.56 256-256-114.56-256-256-256z m0 85.333334c94.293333 0 170.666667 76.373333 170.666667 170.666666s-76.373333 170.666667-170.666667 170.666667-170.666667-76.373333-170.666667-170.666667 76.373333-170.666667 170.666667-170.666666z m110.72-333.312a149.76 149.76 0 0 0 0 69.248l-42.325333 24.448 42.666666 73.898666 42.325334-24.448A149.162667 149.162667 0 0 0 725.333333 271.146667V320h85.333334v-48.853333c22.698667-6.741333 43.178667-18.773333 59.946666-34.645334l42.325334 24.448 42.666666-73.898666-42.325333-24.448a149.76 149.76 0 0 0 0-69.205334l42.325333-24.448-42.666666-73.898666-42.325334 24.448a149.162667 149.162667 0 0 0-59.946666-34.645334V-64h-85.333334v48.853333a149.162667 149.162667 0 0 0-59.946666 34.645334l-42.325334-24.448-42.666666 73.898666 42.325333 24.405334zM768 64a64 64 0 1 1 0 128 64 64 0 0 1 0-128z"  horiz-adv-x="1024" />

    
    <glyph glyph-name="user-settings-fill" unicode="&#59538;" d="M512 298.666667v-341.333334H170.666667a341.333333 341.333333 0 0 0 341.333333 341.333334z m0 42.666666c-141.44 0-256 114.56-256 256s114.56 256 256 256 256-114.56 256-256-114.56-256-256-256z m110.72-247.978666a149.76 149.76 0 0 0 0 69.248l-42.325333 24.448 42.666666 73.898666 42.325334-24.448A149.162667 149.162667 0 0 0 725.333333 271.146667V320h85.333334v-48.853333c22.698667-6.741333 43.178667-18.773333 59.946666-34.645334l42.325334 24.448 42.666666-73.898666-42.325333-24.448a149.76 149.76 0 0 0 0-69.205334l42.325333-24.448-42.666666-73.898666-42.325334 24.448a149.162667 149.162667 0 0 0-59.946666-34.645334V-64h-85.333334v48.853333a149.162667 149.162667 0 0 0-59.946666 34.645334l-42.325334-24.448-42.666666 73.898666 42.325333 24.405334zM768 170.666667a42.666667 42.666667 0 1 1 0-85.333334 42.666667 42.666667 0 0 1 0 85.333334z"  horiz-adv-x="1024" />

    
    <glyph glyph-name="palette-fill" unicode="&#59213;" d="M512 810.666667c235.605333 0 426.666667-169.728 426.666667-379.264a237.141333 237.141333 0 0 0-237.056-237.013334h-83.882667c-39.338667 0-71.125333-31.786667-71.125333-71.125333 0-18.005333 7.125333-34.602667 18.005333-46.933333 11.392-12.8 18.517333-29.397333 18.517333-47.872C583.125333-10.922667 550.4-42.666667 512-42.666667 276.394667-42.666667 85.333333 148.394667 85.333333 384S276.394667 810.666667 512 810.666667zM320 384a64 64 0 1 1 0 128 64 64 0 0 1 0-128z m384 0a64 64 0 1 1 0 128 64 64 0 0 1 0-128zM512 512a64 64 0 1 1 0 128 64 64 0 0 1 0-128z"  horiz-adv-x="1024" />

    
    <glyph glyph-name="palette-line" unicode="&#59214;" d="M512 810.666667c235.605333 0 426.666667-169.728 426.666667-379.264a237.141333 237.141333 0 0 0-237.056-237.013334h-83.882667c-39.338667 0-71.125333-31.786667-71.125333-71.125333 0-18.005333 7.125333-34.602667 18.005333-46.933333 11.392-12.8 18.517333-29.397333 18.517333-47.872C583.125333-10.922667 550.4-42.666667 512-42.666667 276.394667-42.666667 85.333333 148.394667 85.333333 384S276.394667 810.666667 512 810.666667z m-50.730667-687.402667a156.330667 156.330667 0 0 0 156.458667 156.458667h83.882667A151.808 151.808 0 0 1 853.333333 431.36C853.333333 591.402667 702.634667 725.333333 512 725.333333a341.333333 341.333333 0 0 1-28.842667-681.472 155.648 155.648 0 0 0-21.888 79.36zM320 384a64 64 0 1 0 0 128 64 64 0 0 0 0-128z m384 0a64 64 0 1 0 0 128 64 64 0 0 0 0-128zM512 512a64 64 0 1 0 0 128 64 64 0 0 0 0-128z"  horiz-adv-x="1024" />

    
    <glyph glyph-name="git-branch-fill" unicode="&#59215;" d="M303.146667 247.04A128.042667 128.042667 0 1 0 213.333333 248.746667V519.253333a128.042667 128.042667 0 1 0 85.333334 0V384c35.669333 26.794667 79.957333 42.666667 128 42.666667h170.666666a128.042667 128.042667 0 0 1 123.52 94.293333 128.042667 128.042667 0 1 0 86.698667-2.730667A213.376 213.376 0 0 0 597.333333 341.333333h-170.666666a128.042667 128.042667 0 0 1-123.52-94.293333z"  horiz-adv-x="1024" />

    
    <glyph glyph-name="git-branch-line" unicode="&#59217;" d="M303.146667 247.04A128.042667 128.042667 0 1 0 213.333333 248.746667V519.253333a128.042667 128.042667 0 1 0 85.333334 0V384c35.669333 26.794667 79.957333 42.666667 128 42.666667h170.666666a128.042667 128.042667 0 0 1 123.52 94.293333 128.042667 128.042667 0 1 0 86.698667-2.730667A213.376 213.376 0 0 0 597.333333 341.333333h-170.666666a128.042667 128.042667 0 0 1-123.52-94.293333zM256 170.666667a42.666667 42.666667 0 1 1 0-85.333334 42.666667 42.666667 0 0 1 0 85.333334zM256 682.666667a42.666667 42.666667 0 1 1 0-85.333334 42.666667 42.666667 0 0 1 0 85.333334z m512 0a42.666667 42.666667 0 1 1 0-85.333334 42.666667 42.666667 0 0 1 0 85.333334z"  horiz-adv-x="1024" />

    
    <glyph glyph-name="book-2-fill" unicode="&#59227;" d="M896 128H256a42.666667 42.666667 0 0 1 0-85.333333h640v-85.333334H256a128 128 0 0 0-128 128V725.333333a85.333333 85.333333 0 0 0 85.333333 85.333334h682.666667v-682.666667z m-213.333333 384V597.333333H341.333333v-85.333333h341.333334z"  horiz-adv-x="1024" />

    
    <glyph glyph-name="book-2-line" unicode="&#59228;" d="M896 128H256a42.666667 42.666667 0 0 1 0-85.333333h640v-85.333334H256a128 128 0 0 0-128 128V725.333333a85.333333 85.333333 0 0 0 85.333333 85.333334h682.666667v-682.666667zM213.333333 211.2c6.912 1.408 14.037333 2.133333 21.333334 2.133333H810.666667V725.333333H213.333333v-514.133333zM682.666667 512H341.333333V597.333333h341.333334v-85.333333z"  horiz-adv-x="1024" />

    
    <glyph glyph-name="book-open-fill" unicode="&#59229;" d="M896 0h-341.333333V640a128 128 0 0 0 128 128h213.333333a42.666667 42.666667 0 0 0 42.666667-42.666667v-682.666666a42.666667 42.666667 0 0 0-42.666667-42.666667z m-426.666667 0H128a42.666667 42.666667 0 0 0-42.666667 42.666667V725.333333a42.666667 42.666667 0 0 0 42.666667 42.666667h213.333333a128 128 0 0 0 128-128v-640z m0 0h85.333334v-85.333333h-85.333334v85.333333z"  horiz-adv-x="1024" />

    
    <glyph glyph-name="book-open-line" unicode="&#59230;" d="M554.666667 0v-85.333333h-85.333334v85.333333H128a42.666667 42.666667 0 0 0-42.666667 42.666667V725.333333a42.666667 42.666667 0 0 0 42.666667 42.666667h256a170.24 170.24 0 0 0 128-57.770667A170.24 170.24 0 0 0 640 768h256a42.666667 42.666667 0 0 0 42.666667-42.666667v-682.666666a42.666667 42.666667 0 0 0-42.666667-42.666667h-341.333333z m298.666666 85.333333V682.666667h-213.333333a85.333333 85.333333 0 0 1-85.333333-85.333334v-512h298.666666z m-384 0V597.333333a85.333333 85.333333 0 0 1-85.333333 85.333334H170.666667v-597.333334h298.666666z"  horiz-adv-x="1024" />

    
    <glyph glyph-name="vip-fill" unicode="&#59323;" d="M128 768h768a42.666667 42.666667 0 0 0 42.666667-42.666667v-682.666666a42.666667 42.666667 0 0 0-42.666667-42.666667H128a42.666667 42.666667 0 0 0-42.666667 42.666667V725.333333a42.666667 42.666667 0 0 0 42.666667 42.666667z m341.333333-234.666667v-298.666666h85.333334v298.666666h-85.333334z m-12.16 0H366.976l-63.872-175.488L239.232 533.333333H149.034667l111.402666-297.130666h85.333334L457.173333 533.333333z m225.493334-213.333333h64a106.666667 106.666667 0 1 1 0 213.333333H597.333333v-298.666666h85.333334v85.333333z m0 85.333333v42.666667h64a21.333333 21.333333 0 1 0 0-42.666667H682.666667z"  horiz-adv-x="1024" />

    
    <glyph glyph-name="vip-line" unicode="&#59326;" d="M85.333333 85.333333h853.333334v-85.333333H85.333333v85.333333z m384 469.333334h85.333334v-341.333334h-85.333334V554.666667zM339.84 554.666667h90.666667l-127.402667-339.797334h-85.333333L90.368 554.666667h90.666667l79.402666-218.154667L339.84 554.666667zM725.333333 298.666667v-85.333334h-85.333333V554.666667h170.666667a128 128 0 0 0 0-256h-85.333334z m0 170.666666v-85.333333h85.333334a42.666667 42.666667 0 0 1 0 85.333333h-85.333334zM85.333333 768h853.333334v-85.333333H85.333333V768z"  horiz-adv-x="1024" />

    
    <glyph glyph-name="equalizer-fill" unicode="&#59394;" d="M263.253333 128a128.042667 128.042667 0 0 0 241.493334 0H938.666667v-85.333333H504.746667a128.042667 128.042667 0 0 0-241.493334 0H85.333333v85.333333h177.92z m256 298.666667a128.042667 128.042667 0 0 0 241.493334 0H938.666667v-85.333334h-177.92a128.042667 128.042667 0 0 0-241.493334 0H85.333333v85.333334h433.92z m-256 298.666666a128.042667 128.042667 0 0 0 241.493334 0H938.666667v-85.333333H504.746667a128.042667 128.042667 0 0 0-241.493334 0H85.333333V725.333333h177.92z"  horiz-adv-x="1024" />

    
    <glyph glyph-name="equalizer-line" unicode="&#59395;" d="M263.253333 128a128.042667 128.042667 0 0 0 241.493334 0H938.666667v-85.333333H504.746667a128.042667 128.042667 0 0 0-241.493334 0H85.333333v85.333333h177.92z m256 298.666667a128.042667 128.042667 0 0 0 241.493334 0H938.666667v-85.333334h-177.92a128.042667 128.042667 0 0 0-241.493334 0H85.333333v85.333334h433.92z m-256 298.666666a128.042667 128.042667 0 0 0 241.493334 0H938.666667v-85.333333H504.746667a128.042667 128.042667 0 0 0-241.493334 0H85.333333V725.333333h177.92zM384 640a42.666667 42.666667 0 1 1 0 85.333333 42.666667 42.666667 0 0 1 0-85.333333z m256-298.666667a42.666667 42.666667 0 1 1 0 85.333334 42.666667 42.666667 0 0 1 0-85.333334z m-256-298.666666a42.666667 42.666667 0 1 1 0 85.333333 42.666667 42.666667 0 0 1 0-85.333333z"  horiz-adv-x="1024" />

    
    <glyph glyph-name="shujutu" unicode="&#59212;" d="M778.779 813.81l67.573-67.826-110.779-108.521-100.986 89.932-214.779-222.569-118.819 103.998-233.62-229.6 54.26-54.763 181.371 180.868 114.548-102.491 222.316 227.089 96.463-88.172 164.037 149.968 63.302-61.797 0.252 184.068zM66.362 222.225h80.638v-226.083h-80.638v226.083zM197.493 311.161h80.638v-315.018h-80.638v315.018zM333.141 264.431h80.638v-268.291h-80.638v268.291zM470.301 333.77h80.638v-337.63h-80.638v337.63zM605.95 470.94h80.638v-474.8h-80.638v474.8zM743.107 356.383h80.638v-360.24h-80.638v360.24zM878.757 516.163h80.638v-520.020h-80.638v520.020z"  horiz-adv-x="1024" />

    
    <glyph glyph-name="draft-fill" unicode="&#59236;" d="M853.333333 810.666667a42.666667 42.666667 0 0 0 42.666667-42.666667v-160.298667l-383.957333-384-0.256-180.821333 181.162666-0.256L896 245.674667V0a42.666667 42.666667 0 0 0-42.666667-42.666667H170.666667a42.666667 42.666667 0 0 0-42.666667 42.666667V768a42.666667 42.666667 0 0 0 42.666667 42.666667h682.666666z m75.861334-290.474667l60.330666-60.330667L657.664 128l-60.416 0.085333 0.085333 60.245334 331.861334 331.861333zM512 384H298.666667v-85.333333h213.333333v85.333333z m128 170.666667H298.666667v-85.333334h341.333333V554.666667z"  horiz-adv-x="1024" />

    
    <glyph glyph-name="draft-line" unicode="&#59237;" d="M853.333333 810.666667a42.666667 42.666667 0 0 0 42.666667-42.666667v-160.298667l-85.333333-85.333333V725.333333H213.333333v-682.666666h597.333334v117.674666l85.333333 85.333334V0a42.666667 42.666667 0 0 0-42.666667-42.666667H170.666667a42.666667 42.666667 0 0 0-42.666667 42.666667V768a42.666667 42.666667 0 0 0 42.666667 42.666667h682.666666z m75.861334-290.474667l60.330666-60.330667L657.664 128l-60.416 0.085333 0.085333 60.245334 331.861334 331.861333zM554.666667 384v-85.333333H341.333333v85.333333h213.333334z m128 170.666667v-85.333334H341.333333V554.666667h341.333334z"  horiz-adv-x="1024" />

    
    <glyph glyph-name="apps-fill" unicode="&#59452;" d="M273.06666667 816.3555552A193.42222187 193.42222187 0 0 0 466.48888853 622.93333333V429.51111147H273.06666667a193.42222187 193.42222187 0 1 0 0 386.84444373z m0-477.86666667H466.48888853v-193.42222186A193.42222187 193.42222187 0 1 0 273.06666667 338.48888853000005z m477.86666666 477.86666667a193.42222187 193.42222187 0 1 0 0-386.84444373H557.51111147V622.93333333a193.42222187 193.42222187 0 0 0 193.42222186 193.42222187zM557.51111147 338.48888853000005h193.42222186A193.42222187 193.42222187 0 1 0 557.51111147 145.06666667000002V338.48888853000005z"  horiz-adv-x="1024" />

    
    <glyph glyph-name="apps-line" unicode="&#59453;" d="M273.06666667 816.3555552A193.42222187 193.42222187 0 0 0 466.48888853 622.93333333V429.51111147H273.06666667a193.42222187 193.42222187 0 1 0 0 386.84444373zM375.46666667 520.53333333V622.93333333A102.4 102.4 0 1 1 273.06666667 520.53333333H375.46666667z m-102.4-182.0444448H466.48888853v-193.42222186A193.42222187 193.42222187 0 1 0 273.06666667 338.48888853000005z m0-91.02222186A102.4 102.4 0 1 1 375.46666667 145.06666667000002V247.46666667H273.06666667z m477.86666666 568.88888853a193.42222187 193.42222187 0 1 0 0-386.84444373H557.51111147V622.93333333a193.42222187 193.42222187 0 0 0 193.42222186 193.42222187z m0-295.82222187A102.4 102.4 0 1 1 648.53333333 622.93333333V520.53333333h102.4zM557.51111147 338.48888853000005h193.42222186A193.42222187 193.42222187 0 1 0 557.51111147 145.06666667000002V338.48888853000005z m91.02222186-91.02222186v-102.4A102.4 102.4 0 1 1 750.93333333 247.46666667H648.53333333z"  horiz-adv-x="1024" />

    
    <glyph glyph-name="alarm-fill" unicode="&#59450;" d="M512-42.666667a384 384 0 1 0 0 768 384 384 0 0 0 0-768z m42.666667 384V554.666667h-85.333334v-298.666667h213.333334v85.333333h-128zM74.538667 627.968l150.826666 150.826667 60.373334-60.330667L134.826667 567.594667 74.538667 627.968z m724.053333 150.826667l150.869333-150.826667-60.330666-60.373333-150.869334 150.869333 60.373334 60.330667z"  horiz-adv-x="1024" />

    
    <glyph glyph-name="alarm-line" unicode="&#59451;" d="M512-42.666667a384 384 0 1 0 0 768 384 384 0 0 0 0-768z m0 85.333334a298.666667 298.666667 0 1 1 0 597.333333 298.666667 298.666667 0 0 1 0-597.333333z m42.666667 298.666666h128v-85.333333h-213.333334V554.666667h85.333334v-213.333334zM74.538667 627.968l150.826666 150.826667 60.373334-60.330667L134.826667 567.594667 74.538667 627.968z m724.053333 150.826667l150.869333-150.826667-60.330666-60.373333-150.869334 150.869333 60.373334 60.330667z"  horiz-adv-x="1024" />

    
    <glyph glyph-name="circle-fill" unicode="&#59463;" d="M512 384m-308.99047875 0a308.99047875 308.99047875 0 1 1 617.9809575 0 308.99047875 308.99047875 0 1 1-617.9809575 0Z"  horiz-adv-x="1024" />

    
    <glyph glyph-name="circle-line" unicode="&#59464;" d="M512 75.00952125000003C341.34455872 75.00952125000003 203.00952125 213.34455872 203.00952125 384S341.34455872 692.99047875 512 692.99047875s308.99047875-138.33503747 308.99047875-308.99047875-138.33503747-308.99047875-308.99047875-308.99047875z m0 61.79809617a247.19238258 247.19238258 0 1 1 0 494.38476516 247.19238258 247.19238258 0 0 1 0-494.38476516z"  horiz-adv-x="1024" />

    
    <glyph glyph-name="oschina" unicode="&#58883;" d="M616.58533332 896c-282.83 0-512-229.17-512-512s229.17-512 512-512 512 229.17 512 512-229.169 512-512 512zM474.86133332 217.65999999999997h234.319c40.787 0 73.952 33.061 73.952 73.951v12.257c0 13.596-11.02 24.72-24.72 24.72H585.79033332a24.66 24.66 0 0 0-24.72 24.719v61.592a24.66 24.66 0 0 0 24.72 24.72h283.552c13.596 0 24.72-11.021 24.72-24.72v-141.724c0-91.977-74.57-166.444-166.445-166.444H363.83033332c-13.596 0-24.72 11.02-24.72 24.72V476.49c0 102.071 82.81 184.881 184.88 184.881h345.35a24.66 24.66 0 0 0 24.72-24.72l-0.103-61.592a24.66 24.66 0 0 0-24.72-24.72H524.09533332c-40.787 0-73.952-33.061-73.952-73.951v-234.216c0-13.493 11.02-24.514 24.719-24.514z"  horiz-adv-x="1242" />

    
    <glyph glyph-name="cry" unicode="&#58986;" d="M512 821.333333C270.933333 821.333333 74.666667 625.066667 74.666667 384S270.933333-53.333333 512-53.333333 949.333333 142.933333 949.333333 384 753.066667 821.333333 512 821.333333z m0-810.666666c-204.8 0-373.333333 168.533333-373.333333 373.333333S307.2 757.333333 512 757.333333 885.333333 588.8 885.333333 384 716.8 10.666667 512 10.666667zM512 298.666667c-81.066667 0-151.466667-36.266667-211.2-106.666667-10.666667-12.8-8.533333-34.133333 4.266667-44.8 12.8-10.666667 34.133333-8.533333 44.8 4.266667 46.933333 57.6 100.266667 85.333333 162.133333 85.333333s115.2-27.733333 162.133333-85.333333c6.4-8.533333 14.933333-10.666667 25.6-10.666667 6.4 0 14.933333 2.133333 21.333334 6.4 12.8 10.666667 14.933333 32 4.266666 44.8-61.866667 70.4-132.266667 106.666667-213.333333 106.666667zM362.666667 384c23.466667 0 42.666667 19.2 42.666666 42.666667v64c0 23.466667-19.2 42.666667-42.666666 42.666666s-42.666667-19.2-42.666667-42.666666v-64c0-23.466667 19.2-42.666667 42.666667-42.666667zM661.333333 384c23.466667 0 42.666667 19.2 42.666667 42.666667v64c0 23.466667-19.2 42.666667-42.666667 42.666666s-42.666667-19.2-42.666666-42.666666v-64c0-23.466667 19.2-42.666667 42.666666-42.666667z"  horiz-adv-x="1024" />

    
    <glyph glyph-name="meh" unicode="&#58999;" d="M512-53.333333C270.933333-53.333333 74.666667 142.933333 74.666667 384S270.933333 821.333333 512 821.333333 949.333333 625.066667 949.333333 384 753.066667-53.333333 512-53.333333z m0 810.666666C307.2 757.333333 138.666667 588.8 138.666667 384S307.2 10.666667 512 10.666667 885.333333 179.2 885.333333 384 716.8 757.333333 512 757.333333zM362.666667 384c-23.466667 0-42.666667 19.2-42.666667 42.666667v64c0 23.466667 19.2 42.666667 42.666667 42.666666s42.666667-19.2 42.666666-42.666666v-64c0-23.466667-19.2-42.666667-42.666666-42.666667zM661.333333 384c-23.466667 0-42.666667 19.2-42.666666 42.666667v64c0 23.466667 19.2 42.666667 42.666666 42.666666s42.666667-19.2 42.666667-42.666666v-64c0-23.466667-19.2-42.666667-42.666667-42.666667zM699.733333 181.333333H324.266667c-17.066667 0-32 14.933333-32 32s14.933333 32 32 32h373.333333c17.066667 0 32-14.933333 32-32s-12.8-32-29.866667-32z"  horiz-adv-x="1024" />

    
    <glyph glyph-name="smile" unicode="&#59006;" d="M512 821.333333C270.933333 821.333333 74.666667 625.066667 74.666667 384S270.933333-53.333333 512-53.333333 949.333333 142.933333 949.333333 384 753.066667 821.333333 512 821.333333z m0-810.666666c-204.8 0-373.333333 168.533333-373.333333 373.333333S307.2 757.333333 512 757.333333 885.333333 588.8 885.333333 384 716.8 10.666667 512 10.666667zM674.133333 288c-46.933333-57.6-100.266667-85.333333-162.133333-85.333333s-115.2 27.733333-162.133333 85.333333c-10.666667 12.8-32 14.933333-44.8 4.266667-12.8-10.666667-14.933333-32-4.266667-44.8 59.733333-70.4 130.133333-106.666667 211.2-106.666667s151.466667 36.266667 211.2 106.666667c10.666667 12.8 8.533333 34.133333-4.266667 44.8-12.8 10.666667-34.133333 8.533333-44.8-4.266667zM362.666667 384c23.466667 0 42.666667 19.2 42.666666 42.666667v64c0 23.466667-19.2 42.666667-42.666666 42.666666s-42.666667-19.2-42.666667-42.666666v-64c0-23.466667 19.2-42.666667 42.666667-42.666667zM661.333333 384c23.466667 0 42.666667 19.2 42.666667 42.666667v64c0 23.466667-19.2 42.666667-42.666667 42.666666s-42.666667-19.2-42.666666-42.666666v-64c0-23.466667 19.2-42.666667 42.666666-42.666667z"  horiz-adv-x="1024" />

    
    <glyph glyph-name="smile-filling" unicode="&#59020;" d="M512 821.333333c241.066667 0 437.333333-196.266667 437.333333-437.333333S753.066667-53.333333 512-53.333333 74.666667 142.933333 74.666667 384 270.933333 821.333333 512 821.333333z m206.933333-529.066666c-12.8 10.666667-34.133333 8.533333-44.8-4.266667-46.933333-57.6-100.266667-85.333333-162.133333-85.333333s-115.2 27.733333-162.133333 85.333333c-10.666667 12.8-32 14.933333-44.8 4.266667s-14.933333-32-4.266667-44.8c59.733333-70.4 130.133333-106.666667 211.2-106.666667s151.466667 36.266667 211.2 106.666667c10.666667 12.8 8.533333 32-4.266667 44.8zM362.666667 533.333333c-23.466667 0-42.666667-19.2-42.666667-42.666666v-66.133334c2.133333-21.333333 19.2-40.533333 42.666667-40.533333s42.666667 19.2 42.666666 42.666667v66.133333c-2.133333 23.466667-19.2 40.533333-42.666666 40.533333z m298.666666 0c-23.466667 0-42.666667-19.2-42.666666-42.666666v-66.133334c2.133333-21.333333 19.2-40.533333 42.666666-40.533333s42.666667 19.2 42.666667 42.666667v66.133333c-2.133333 23.466667-19.2 40.533333-42.666667 40.533333z"  horiz-adv-x="1024" />

    
    <glyph glyph-name="meh-filling" unicode="&#59021;" d="M512 821.333333c241.066667 0 437.333333-196.266667 437.333333-437.333333S753.066667-53.333333 512-53.333333 74.666667 142.933333 74.666667 384 270.933333 821.333333 512 821.333333z m-187.733333-576h-2.133334c-17.066667-2.133333-29.866667-14.933333-29.866666-32s14.933333-32 32-32h375.466666c17.066667 2.133333 29.866667 14.933333 29.866667 32s-14.933333 32-32 32H324.266667zM362.666667 533.333333c-23.466667 0-42.666667-19.2-42.666667-42.666666v-66.133334c2.133333-21.333333 19.2-40.533333 42.666667-40.533333s42.666667 19.2 42.666666 42.666667v66.133333c-2.133333 23.466667-19.2 40.533333-42.666666 40.533333z m298.666666 0c-23.466667 0-42.666667-19.2-42.666666-42.666666v-66.133334c2.133333-21.333333 19.2-40.533333 42.666666-40.533333s42.666667 19.2 42.666667 42.666667v66.133333c-2.133333 23.466667-19.2 40.533333-42.666667 40.533333z"  horiz-adv-x="1024" />

    
    <glyph glyph-name="cry-filling" unicode="&#59017;" d="M512 821.333333c241.066667 0 437.333333-196.266667 437.333333-437.333333S753.066667-53.333333 512-53.333333 74.666667 142.933333 74.666667 384 270.933333 821.333333 512 821.333333zM512 298.666667c-81.066667 0-151.466667-36.266667-211.2-106.666667-10.666667-12.8-8.533333-34.133333 4.266667-44.8s34.133333-8.533333 44.8 4.266667c46.933333 57.6 100.266667 85.333333 162.133333 85.333333s115.2-27.733333 162.133333-85.333333c10.666667-12.8 32-14.933333 44.8-4.266667 12.8 10.666667 14.933333 32 4.266667 44.8-59.733333 70.4-130.133333 106.666667-211.2 106.666667z m-149.333333 234.666666c-23.466667 0-42.666667-19.2-42.666667-42.666666v-66.133334c2.133333-21.333333 19.2-40.533333 42.666667-40.533333s42.666667 19.2 42.666666 42.666667v66.133333c-2.133333 23.466667-19.2 40.533333-42.666666 40.533333z m298.666666 0c-23.466667 0-42.666667-19.2-42.666666-42.666666v-66.133334c2.133333-21.333333 19.2-40.533333 42.666666-40.533333s42.666667 19.2 42.666667 42.666667v66.133333c-2.133333 23.466667-19.2 40.533333-42.666667 40.533333z"  horiz-adv-x="1024" />

    
    <glyph glyph-name="add" unicode="&#58906;" d="M466.48888853 429.51111147V679.82222187a22.7555552 22.7555552 0 0 0 22.75555627 22.75555626h45.5111104a22.7555552 22.7555552 0 0 0 22.75555627-22.75555626V429.51111147h250.3111104a22.7555552 22.7555552 0 0 0 22.75555626-22.75555627v-45.5111104a22.7555552 22.7555552 0 0 0-22.75555626-22.75555627H557.51111147v-250.3111104a22.7555552 22.7555552 0 0 0-22.75555627-22.75555626h-45.5111104a22.7555552 22.7555552 0 0 0-22.75555627 22.75555626V338.48888853000005H216.17777813a22.7555552 22.7555552 0 0 0-22.75555626 22.75555627v45.5111104a22.7555552 22.7555552 0 0 0 22.75555626 22.75555627H466.48888853z"  horiz-adv-x="1024" />

    
    <glyph glyph-name="close" unicode="&#58934;" d="M512 448.35271147l177.03822187 177.03822186a22.7555552 22.7555552 0 0 0 32.1308448 0l32.1763552-32.22186666a22.7555552 22.7555552 0 0 0 0-32.1763552L576.35271147 384l177.03822186-177.03822187a22.7555552 22.7555552 0 0 0 0-32.1308448l-32.22186666-32.1763552a22.7555552 22.7555552 0 0 0-32.1763552 0L512 319.64728852999997l-177.03822187-177.03822186a22.7555552 22.7555552 0 0 0-32.1308448 0l-32.1763552 32.22186666a22.7555552 22.7555552 0 0 0 0 32.1763552L447.64728853 384l-177.03822186 177.03822187a22.7555552 22.7555552 0 0 0 0 32.1308448l32.22186666 32.1763552a22.7555552 22.7555552 0 0 0 32.1763552 0L512 448.35271147z"  horiz-adv-x="1024" />

    
    <glyph glyph-name="min" unicode="&#58907;" d="M213.333333 426.666667m21.333334 0l554.666666 0q21.333333 0 21.333334-21.333334l0-42.666666q0-21.333333-21.333334-21.333334l-554.666666 0q-21.333333 0-21.333334 21.333334l0 42.666666q0 21.333333 21.333334 21.333334Z"  horiz-adv-x="1024" />

    
    <glyph glyph-name="fa-arrows-alt-v" unicode="&#60358;" d="M496.75646972 799.20080567L349.10021972 651.54455567c-8.81652833-8.81652833-8.81652833-23.23608398 1e-8-32.05261231s23.23608398-8.81652833 32.0526123 0l108.18786622 108.18786621L489.34069824 40.320190430000025l-108.18786621 108.18786621c-8.81652833 8.81652833-23.23608398 8.81652833-32.05261231 0s-8.81652833-23.23608398 0-32.05261231L496.75646972-31.200805670000022C501.04113769-35.48547364000001 506.80895996-37.875 512.82397461-37.875c6.01501465 0 11.78283692 2.38952637 15.98510743 6.67419434l146.09069824 146.09069824c4.44946289 4.44946289 6.67419434 10.21728516 6.67419433 15.98510742 0 5.76782227-2.22473144 11.618042-6.67419433 15.98510742-8.81652833 8.81652833-23.23608398 8.81652833-32.05261231 0L534.65930176 38.67224121000004l-1e-8 690.65551757L642.84716797 621.1398925799999c8.81652833-8.81652833 23.23608398-8.81652833 32.05261231 0 4.44946289 4.44946289 6.67419434 10.21728516 6.67419433 15.98510742 0 5.76782227-2.22473144 11.618042-6.67419433 15.98510742l-146.09069824 146.09069825c-4.28466797 4.28466797-10.05249023 6.67419434-15.98510743 6.67419433-6.01501465 0-11.78283692-2.38952637-16.06750488-6.67419434z"  horiz-adv-x="1024" />

    
    <glyph glyph-name="arrows-alt-h" unicode="&#60357;" d="M927.20080567 399.24353028L779.54455567 546.89978028c-8.81652833 8.81652833-23.23608398 8.81652833-32.05261231-1e-8s-8.81652833-23.23608398 0-32.0526123l108.18786621-108.18786622H168.32019043l108.18786621 108.18786622c8.81652833 8.81652833 8.81652833 23.23608398 0 32.05261231s-23.23608398 8.81652833-32.05261231 0L96.79919433 399.24353028C92.51452636 394.95886231 90.125 389.19104004 90.125 383.17602538999995c0-6.01501465 2.38952637-11.78283692 6.67419434-15.98510742l146.09069824-146.09069825c4.44946289-4.44946289 10.21728516-6.67419434 15.98510742-6.67419433 5.76782227 0 11.618042 2.22473145 15.98510742 6.67419434 8.81652833 8.81652833 8.81652833 23.23608398 0 32.0526123L166.67224121 361.34069824000005h690.65551757L749.13989258 253.15283203c-8.81652833-8.81652833-8.81652833-23.23608398 0-32.05261231 4.44946289-4.44946289 10.21728516-6.67419434 15.98510742-6.67419433 5.76782227 0 11.618042 2.22473145 15.98510742 6.67419433l146.09069825 146.09069825c4.28466797 4.28466797 6.67419434 10.05249023 6.67419433 15.98510742 0 6.01501465-2.38952637 11.78283692-6.67419434 16.06750489z"  horiz-adv-x="1024" />

    
    <glyph glyph-name="redo-alt" unicode="&#59324;" d="M563.64907886 416.37740946c6.81246848-6.81246848 14.48558711-9.92777921 23.01935656-9.92777922l234.66651741 0.56972633c9.66109875-0.01212202 17.61301987 3.40623391 24.14668652 9.93990056 6.24274282 6.24274282 9.95202259 15.04319141 9.93990056 24.14668652l1.7091783 235.80596939c0.56972632 8.52164677-2.83650825 16.48568924-9.93990123 23.58908222-12.497607 12.497607-32.38953147 11.92788134-45.45686478-1.13945198-5.97606236-5.97606236-9.66109875-13.63705898-9.93990057-22.44963024l1.41825379-150.27433314a407.76 407.76 0 0 1-44.89926049 53.96638954A353.58857156 353.58857156 0 0 1 246.5904793 580.60396944c-139.49802579-139.49802579-139.78894963-363.07306865-0.56972566-502.29229129a354.34285687 354.34285687 0 0 1 502.5832158 0.27880115c13.63705963 13.63705963 13.91586145 33.23805894-0.29092384 47.44484557-13.34613514 13.34613514-31.8076838 11.92788134-45.44474277-1.70917896a289.71428531 289.71428531 0 0 0-411.11188258-0.27880115c-113.92096346 113.92096346-113.64216098 296.60907144 0.56972566 410.82095807a288.94285688 288.94285688 0 0 0 410.25123242 0c21.87990393-21.87990393 39.77172561-43.1900822 53.4087859-64.22145798l-169.31772948 0.58184768a31.54285687 31.54285687 0 0 1-22.74055408-9.67322077c-13.06733332-13.06733332-13.06733332-32.38953081-0.27880181-45.1780623z"  horiz-adv-x="1024" />

    
    <glyph glyph-name="undo-alt" unicode="&#59325;" d="M460.35092114 416.37740946c12.78853149 12.78853149 12.78853149 32.11072899-0.27880181 45.1780623-5.97606236 5.97606236-13.92798281 9.37017491-22.72843273 9.66109941l-169.32985083-0.56972632c13.34613514 20.74045195 31.52888065 42.34155406 53.1178614 63.93053348 113.93308548 113.93308548 296.6211928 114.2118873 410.54215692 0.2909245a289.71428531 289.71428531 0 0 0 0.27880116-411.11188258c-113.92096346-113.92096346-296.60907144-113.64216098-410.82095808 0.56972566-13.63705963 13.63705963-32.37740946 14.77651095-45.73566661 1.41825512-13.91586145-13.91586145-13.63705898-33.51686143 0-47.15392173 139.49802579-139.49802579 363.07306865-139.78894963 502.2922913-0.56972566a354.34285687 354.34285687 0 0 1-0.27880116 502.5832158c-139.20710196 139.20710196-362.79426617 138.92829947-502.01349014-0.2909245-16.48568924-16.48568924-31.25007883-34.64419138-44.59621462-53.68758639l1.41825445 150.27433247c-0.56972632 8.54589082-3.97596022 16.48568991-9.95202259 22.46175226-13.06733332 13.06733332-32.94713511 13.62493762-45.73566661 0.83640612-6.81246848-6.81246848-10.21870305-14.75226823-9.6610994-23.28603636l1.7091783-235.80596939c0-9.09137309 3.68503639-17.89182234 9.93990056-24.14668652 6.54578868-6.54578868 14.20678529-10.23082507 24.14668652-9.93990056l234.67863943-0.58184834c8.23072294-0.27880248 15.91596359 2.84863028 23.0193559 9.95202258z"  horiz-adv-x="1024" />

    
    <glyph glyph-name="falling" unicode="&#59216;" d="M553.173333 657.685333h-64l0.021334-474.602666-224.021334 224-45.269333-45.226667L521.6 60.138667l301.717333 301.717333-45.269333 45.226667-224.853333-224.853334V657.664z"  horiz-adv-x="1024" />

    
    <glyph glyph-name="leftarrow" unicode="&#59221;" d="M783.872 353.877333l-0.042667 64.405334-477.610666 0.298666 225.28 225.322667-45.568 45.568L182.506667 386.048l303.829333-303.829333 45.525333 45.504-226.474666 226.453333 478.506666-0.298667z"  horiz-adv-x="1024" />

    
    <glyph glyph-name="rising" unicode="&#59233;" d="M553.173333 92.16h-64l0.021334 474.581333-224.021334-224-45.269333 45.226667L521.6 689.706667l301.717333-301.696-45.269333-45.269334-224.853333 224.896v-475.477333z"  horiz-adv-x="1024" />

    
    <glyph glyph-name="Rightarrow" unicode="&#59235;" d="M214.677333 353.877333l0.042667 64.405334 477.653333 0.298666-225.301333 225.322667 45.568 45.568 303.424-303.424L512.213333 82.218667l-45.504 45.504 226.453334 226.453333-478.485334-0.298667z"  horiz-adv-x="1024" />

    
    <glyph glyph-name="vip1" unicode="&#59062;" d="M226.28063 132.623809l280.737916 541.744441c14.713097 29.133527 27.223015 47.998177 37.516452 56.618509 10.299577 8.608052 23.205515 12.918217 38.718837 12.918217l26.00835 0 4.9088 28.66383L420.72211 772.568806l-4.91494-28.66383 37.412075 0c19.463284 0 31.899524-1.568728 37.296441-4.694929 5.384637-3.13848 7.362688-8.931416 5.921873-17.386996-0.695848-4.071735-2.453888-9.395998-5.244444-15.97074-2.801812-6.580882-6.862291-14.731516-12.173251-24.432459L312.106344 356.748333l-88.829118 387.156644 70.258157 0 4.91494 28.66383L12.380982 772.568806l-4.91494-28.66383 51.55826 0 139.428539-611.282191L226.28063 132.622786zM598.137823 131.585153l3.034103 17.73492-42.802852 0 55.409984 323.620585 42.802852 0 2.807952 16.392342L484.002342 489.333l-2.814092-16.392342 42.808992 0L468.586235 149.321096l-42.802852 0-3.040243-17.73492L598.137823 131.586177zM642.820488 131.585153 822.128293 131.585153l3.034103 17.73492-49.329499 0 25.910113 151.327544 46.978964 0c49.243541 0 87.565335 8.107655 114.959242 24.322965 27.400047 16.21531 43.877323 40.544415 49.432853 72.981175 5.305843 30.995945-2.680039 53.975309-23.956621 68.939115-21.276582 14.957667-56.362682 22.442128-105.252159 22.442128L704.07355 489.333l-2.807952-16.392342 42.284035 0-55.409984-323.620585-42.284035 0L642.820488 131.585153zM877.703029 472.941682c21.227464 0 34.292014-4.212952 39.200814-12.631692 4.91494-8.42488 4.468778-29.567409-1.331321-63.438844-6.40999-37.448914-13.535271-60.477396-21.355377-69.073168-7.827269-8.601912-21.569248-12.905938-41.227983-12.905938L804.179502 314.892039l27.064402 158.049642L877.703029 472.941682z"  horiz-adv-x="1024" />

    
    <glyph glyph-name="shuaxin1" unicode="&#58909;" d="M872.9 439.02c-13.56 0-25.8 9.24-29.1 22.98-36.06 149.1-168.3 253.26-321.6 253.26-153.3 0-285.54-104.16-321.54-253.26C196.7 445.86 180.38 435.9 164.42 439.86 148.28 443.7 138.38 459.96 142.28 476.04 184.82 652.2 341.06 775.26 522.14 775.26c181.14 0 337.38-123.06 379.92-299.22 3.9-16.08-6-32.34-22.14-36.18C877.64 439.26 875.24 439.02 872.9 439.02zM522.14-7.259999999999991c-181.14 0-337.32 123.06-379.86 299.22-3.9 16.08 6 32.34 22.14 36.18 15.96 3.96 32.28-6 36.18-22.14 36.06-149.1 168.24-253.26 321.54-253.26 153.36 0 285.6 104.16 321.6 253.26 3.9 16.14 20.4 26.1 36.18 22.14 16.14-3.84 26.04-20.1 22.14-36.18C859.52 115.79999999999995 703.28-7.259999999999991 522.14-7.259999999999991zM890.48 99c-16.56 0-30 13.44-30 30L860.48 268.98l-139.98 0c-16.56 0-30 13.44-30 30s13.44 30 30 30l199.98 0 0-199.98C920.48 112.44000000000005 907.04 99 890.48 99zM303.5 432.66L103.52 432.66 103.52 632.64c0 16.56 13.44 30 30 30s30-13.44 30-30l0-139.98 139.98 0c16.56 0 30-13.44 30-30S320.06 432.66 303.5 432.66z"  horiz-adv-x="1024" />

    
    <glyph glyph-name="renwu" unicode="&#58995;" d="M773.79555555 314.34666667c-12.8 0-23.25333333-10.34666667-23.25333333-23.25333334v-145.06666666c0-37.54666667-30.50666667-68.05333333-67.94666667-68.05333334h-331.73333333V689.92h331.73333333c37.54666667 0 67.94666667-30.50666667 67.94666667-67.94666667 0-12.8 10.34666667-23.25333333 23.25333333-23.25333333 12.8 0 23.25333333 10.34666667 23.25333334 23.25333333 0 63.14666667-51.30666667 114.45333333-114.45333334 114.45333334H206.64888889c-63.14666667 0-114.45333333-51.30666667-114.45333334-114.45333334v-475.94666666c0-63.14666667 51.30666667-114.45333333 114.45333334-114.45333334h475.94666666c63.14666667 0 114.45333333 51.30666667 114.45333334 114.45333334v145.06666666c-0.10666667 12.8-10.45333333 23.25333333-23.25333334 23.25333334zM138.70222222 146.02666667000005V621.9733333300001c0 37.54666667 30.50666667 67.94666667 67.94666667 67.94666667H304.35555555v-611.84h-97.81333333c-37.44 0-67.84 30.50666667-67.84 67.94666667z m831.78666667 448.21333333l-189.76-189.86666667c-4.37333333-4.37333333-10.24-6.82666667-16.42666667-6.82666666s-12.05333333 2.45333333-16.42666667 6.82666666L636.51555555 515.73333333c-9.06666667 9.06666667-9.06666667 23.78666667 0 32.85333334s23.78666667 9.06666667 32.85333334 0l94.93333333-94.93333334 173.33333333 173.33333334c9.06666667 9.06666667 23.78666667 9.06666667 32.85333334 0s9.06666667-23.68 0-32.74666667z m-294.4-245.22666667c0-12.8-10.34666667-23.25333333-23.25333334-23.25333333H444.62222222c-12.8 0-23.25333333 10.34666667-23.25333333 23.25333333 0 12.8 10.34666667 23.25333333 23.25333333 23.25333334h208.32c12.8 0 23.14666667-10.34666667 23.14666667-23.25333334z m0-141.22666666c0-12.8-10.34666667-23.25333333-23.25333334-23.25333334H444.62222222c-12.8 0-23.25333333 10.34666667-23.25333333 23.25333334s10.34666667 23.25333333 23.25333333 23.25333333h208.32c12.8-0.10666667 23.14666667-10.45333333 23.14666667-23.25333333z"  horiz-adv-x="1024" />

    
    <glyph glyph-name="icon-test" unicode="&#58968;" d="M589.088 105.376L310.464 384l278.624 278.624 45.248-45.248L400.96 384l233.376-233.376z"  horiz-adv-x="1024" />

    
    <glyph glyph-name="icon-test1" unicode="&#58970;" d="M434.944 105.376l-45.248 45.248L623.04 384l-233.376 233.376 45.248 45.248L713.568 384z"  horiz-adv-x="1024" />

    
    <glyph glyph-name="taobao" unicode="&#58914;" d="M492.40478516 523.7074218800001l26.8453125-24.5803711-13.42265625-14.5274414H679.1328125l0.55195313-40.23984375-107.87695313-0.55195313v-51.97851562l106.74492188-1.68398438v-26.26523437H572.35976563l-0.55195313-93.90234375c35.76533203-1.10478516 47.503125 13.97460938 47.503125 13.97460937l-12.28974609 24.60849609 64.26738281 37.45019532 34.08134765-76.00605469V498.63046875C664.578125 603.71777344 492.37753906 523.79003906 492.37753906 523.79003906zM511.98681641 834C263.47519531 834 62 632.4966796900001 62 383.9859375S263.47607422-66 511.9859375-66C760.52392578-66 962 135.47607422 962 383.9859375S760.52392578 834 511.9859375 834zM287.28212891 620.48203125c29.63496094 0 53.6625-24.02753906 53.6625-53.6625s-24.02753906-53.6625-53.6625-53.6625-53.6625 24.02841797-53.6625 53.6625 24.02841797 53.6625 53.6625 53.6625z m54.76728515-299.63144531l-78.27011719-160.9875-83.84941406 53.6625 110.69384766 120.74765625c15.63222656 20.13398438 0 44.71435547 0 44.71435547l-81.61171875 70.42675781 35.79345703 49.18798828s39.13505859-30.18691406 82.16455078-72.66357422 15.07939453-105.08818359 15.07939453-105.08818359z m461.75097656-80.4796875s-6.71044922-95.03525391-99.48076171-92.7984375-92.82568359 0-92.8256836 0l-26.84443359-0.02636719s-15.63222656 21.81796875 0.58007812 54.24169922c0 0 34.08046875 5.60654297 39.65976563-13.42265625h39.13505859s38.00302734 7.26416016 40.79267578 67.08515625l-53.6625-40.23984375-19.55390625 39.68789062s-71.00683594-57.00498047-129.14384765-53.11054687H423.63476562s-51.42480469 13.39453125-54.21445312 81.05976562v52.55859375h80.5078125s-8.39619141-82.74550781 39.13505859-78.82382812l1.10478516 106.22021484H369.4203125v26.8453125H490.16796875l-0.55283203 53.11054688-17.34433594 0.55195312-49.18798828-48.63603515-32.42373047 29.05488281 60.92578125 60.37382812-1.68486328 27.39726563-76.58525391-70.42675781-46.39921875 46.39833984s61.47861328 39.68789063 81.61259766 133.03828125l68.74189453-17.34433594-11.15771484-36.31816406s299.60419922 109.56181641 337.63447265-81.61259766v-244.83691406z"  horiz-adv-x="1024" />

    
    <glyph glyph-name="zhifubao" unicode="&#58944;" d="M578.65625 244.79091797c0 0-66.65712891-53.34257813-90.91230469-67.31806641-21.30556641-12.27568359-41.315625-20.44775391-59.14072265-26.1140625-17.82685547-5.66191406-33.45292969-9.225-46.87382813-10.69365234-13.42177734-1.46777344-24.53730469-2.41259766-33.34394531-2.83271485-0.83935547-0.41835937-1.88964844-0.63017578-3.14648438-0.63017578h-10.06699218c-23.07128906 0-44.77587891 2.728125-65.11904297 8.18085938-20.34316406 5.45185547-38.06367187 13.52636719-53.16591797 24.22441406-15.09960938 10.69365234-27.05185547 24.11542969-35.86025391 40.26445313-8.80751953 16.14638672-13.21347656 34.9171875-13.21347656 56.3071289 0.42099609 18.45615234 5.45361328 35.23271484 15.09960937 50.33320313 9.646875 15.103125 22.12470703 27.89472656 37.43701172 38.38007812 15.30966797 10.48798828 32.29716797 18.45615234 50.96337891 23.91064453 18.66181641 5.45185547 37.43349609 7.75722656 56.30712891 6.9178711 18.45615234-0.83847656 36.28125-3.03837891 53.47880859-6.60410157 17.1984375-3.56660156 33.66123047-7.86357422 49.39013672-12.8961914 15.72978516-5.03613281 30.61845703-10.48798828 44.67128906-16.35908203 14.05195312-5.87460938 27.36914063-11.53564453 39.95332031-16.98925782 5.03173828-2.0953125 10.27617187-4.19414063 15.72978516-6.29033203 5.45185547-2.0953125 11.11376953-4.19414063 16.98486328-6.29033203 12.16582031 15.52060547 22.44111328 30.72480469 30.82763672 45.61435547 8.39003906 14.89130859 15.31230469 28.52138672 20.76503906 40.89462891 5.45185547 12.375 9.64599609 22.75488281 12.58417969 31.14492187 2.93730469 8.38652344 4.8234375 14.26113281 5.66191406 17.61503906h-273.05683594v30.20185547h128.97861329v69.8334961h-179.3100586v30.20185547h179.3109375v56.62529296c0 3.77666016 2.0953125 6.81416016 6.29033203 9.12128907 4.19414063 2.30800781 9.01582031 3.88037109 14.4703125 4.71884765 6.29033203 1.26035156 13.42353516 1.88964844 21.38994141 1.88964844h48.44707031v-72.35419922h184.34179688v-30.20185547h-184.34179688v-69.83349609h146.48730469c0.03251953 0.20830078 0.07294922 0.41923828 0.10458984 0.62666016v-0.62666016h-0.10458984c-2.94697266-18.69082031-7.94091797-38.40205078-14.99326172-59.14423828-5.87021484-18.03603516-14.57402344-38.58837891-26.11054687-61.65527344-11.53564453-23.06777344-26.73896484-46.76660156-45.61435547-71.09384766 0 0 144.39462891-69.06181641 296.81894531-93.39433593 25.31689453 56.14716797 39.40839844 118.44492188 39.40839844 184.03330078 0 247.52724609-200.65869141 448.1859375-448.1859375 448.1859375s-448.1859375-200.66044922-448.1859375-448.18769531 200.65869141-448.1859375 448.1859375-448.1859375c153.54052734 0 289.04150391 77.21455078 369.81123047 194.92294921-82.09248047 17.86289063-169.2703125 54.0703125-303.15410157 113.54677735zM226.32646484 264.92666016c-1.68222656-76.90253906 85.33476563-82.61630859 98.74863282-83.02851563 44.34257812-1.3640625 80.15888672 15.38525391 108.05361328 31.95263672 27.88945313 16.56826172 73.38603516 59.3578125 75.06386718 60.82558594s3.35478516 3.04101563 5.03173829 4.71884765c-12.16230469 6.71308594-24.11630859 12.89970703-35.86025391 18.5616211-11.74394531 5.66191406-71.41113281 37.70507813-124.36787109 43.18945312-100.27001953 10.38603516-126.15820313-52.82490234-126.67060547-76.2196289z"  horiz-adv-x="1024" />

    
    <glyph glyph-name="baidu" unicode="&#59007;" d="M461.99199219 308.98886718999995l-35.15976563 0c0 0-36.89472656-4.24248047-49.81464843-46.92216797-4.49912109-28.47480469 3.98496094-46.40800781 5.46328125-50.00800781 1.54248047-3.53496094 13.43408203-28.02480469 43.32304687-28.02480469l61.19208984 0 0 165.83466797-25.0040039 0.51416015L461.99199219 308.98886718999995zM461.99199219 209.03789061999998l-26.73896485 0c0 0-19.41152345 1.92832031-25.38984375 24.74648438-3.02080078 10.15576172 0.45 22.75400391 2.05664063 27.31816406 1.47832031 4.56416016 7.97080078 22.94736329 21.4040039 22.94736328l28.73232422 0 0-75.01113281L461.99199219 209.03876952999997zM587.01113281 209.03789061999998l-39.85224609 0c0 0-10.15576172 2.12080078-10.15576172 10.73408204L537.003125 308.98886718999995 512 308.98886718999995l0-98.8584961c0 0 1.47832031-26.09648437 32.39560547-26.09648437l67.61953124 0L612.01513671 308.98886718999995l-25.0040039 0L587.01113281 209.03789061999998zM512 833.94023437C263.50419922 833.94023437 62.05976563 632.4958007800001 62.05976563 384S263.50419922-65.94023436999998 512-65.94023436999998 961.94023437 135.50419922000003 961.94023437 384 760.49580078 833.94023437 512 833.94023437zM598.13105469 626.83916016c32.71728516-3.40664063 55.66376953-40.04472656 51.3571289-81.82441407-4.30664063-41.78056641-34.32392578-72.95449219-67.04121093-69.54785156-32.71728516 3.40664063-55.66376953 40.04472656-51.35712891 81.82441406C535.39648438 599.07099609 565.47880859 630.2458007800001 598.13105469 626.83916016zM444.70214844 629.66748047c32.84560547 1.73583984 61.19208985-30.853125 63.44121094-72.82617188 2.18583984-41.97304688-22.56152345-77.38945313-55.40712891-79.12529296-32.84560547-1.73583984-61.19208985 30.853125-63.44121094 72.82617187C387.10917969 592.5152343699999 411.92070313 627.93164063 444.70214844 629.66748047zM279.05908203 430.02216797c-2.25 41.97304688 22.62568359 77.38945313 55.40712891 79.12529297 32.84560547 1.73583984 61.25625001-30.853125 63.44121093-72.82617188 2.25-41.97304688-22.56152345-77.38945313-55.4071289-79.12529297C309.65556641 355.46103516000005 281.30908203 388.04912109 279.05908203 430.02216797zM693.90458985 177.02724608999995C664.72226563 106.96523436999996 558.15136719 143.34667968999997 558.15136719 143.34667968999997s-39.27304687 12.91992188-84.84609375 2.57080078c-45.57216797-10.41328125-84.91025391-6.49160156-84.91025391-6.49160156s-53.35048828-1.28583984-68.51953125 67.42705078c-15.16904297 68.84121094 53.22128906 106.50761719 58.29960938 112.93505859 5.01328125 6.55664063 40.55888672 31.17480469 63.31289062 70.06201172 22.88232422 38.95224609 91.33769531 70.06201172 139.48154297-6.49160156 35.54560547-51.93632813 96.41601563-99.95097655 96.41601563-99.95097656S723.021875 247.08925781000005 693.90458985 177.02724608999995zM678.47802734 343.56943359c-32.653125 3.40664063-55.66376953 40.04472656-51.3571289 81.82441407 4.30664063 41.78056641 34.32392578 72.95449219 67.04121094 69.54785156 32.71728516-3.40664063 55.72792969-40.04472656 51.3571289-81.82441406C741.21259766 371.33759766000003 711.1953125 340.16279297000005 678.47802734 343.56943359zM587.01113281 209.03789061999998l-39.85224609 0c0 0-10.15576172 2.12080078-10.15576172 10.73408204L537.003125 308.98886718999995 512 308.98886718999995l0-98.8584961c0 0 1.47832031-26.09648437 32.39560547-26.09648437l67.61953124 0L612.01513671 308.98886718999995l-25.0040039 0L587.01113281 209.03789061999998zM461.99199219 350.38271483999995l0-41.39472656-35.15976563 0c0 0-36.89472656-4.24248047-49.81464843-46.92216797-4.49912109-28.47480469 3.98496094-46.40800781 5.46328125-50.00800781 1.54248047-3.53496094 13.43408203-28.02480469 43.32304687-28.02480469l61.19208984 0L486.99599609 349.86855469 461.99199219 350.38271483999995zM462.05703125 209.03789061999998l-0.06416016 0-26.73896484 0c0 0-19.41152345 1.92832031-25.38984375 24.74648438-3.02080078 10.15576172 0.45 22.75400391 2.05664063 27.31816406 1.47832031 4.56416016 7.97080078 22.94736329 21.4040039 22.94736328l28.73232422 0L462.05703125 209.03789061999998z"  horiz-adv-x="1024" />

    
    </font>
</defs>
</svg>
